<?xml version="1.0" standalone="no"?>
<!DOCTYPE svg PUBLIC "-//W3C//DTD SVG 1.1//EN" "http://www.w3.org/Graphics/SVG/1.1/DTD/svg11.dtd" >
<svg xmlns="http://www.w3.org/2000/svg">
<metadata></metadata>
<defs>
<font id="dejavu_sans_monobook" horiz-adv-x="1233" >
<font-face units-per-em="2048" ascent="1556" descent="-492" />
<missing-glyph horiz-adv-x="500" />
<glyph unicode="&#xfedf;&#xfe82;" arabic-form="isolated" d="M0 0zM-106 1634l160 123q103 -83 170 -104q42 -13 96 -13q58 0 100 16q107 41 194 117v-125q-90 -64 -180 -93q-66 -22 -120 -22q-34 0 -110 17t-144 87l-166 -128v125zM1054 834q0 -300 -139 -518q-55 -85 -132 -156q-205 -180 -363 -180q-106 0 -181 32v184 q96 -32 181 -32q113 0 249 152l-490 1094h179l426 -959q29 43 49 98q37 137 37 321v686h184v-722z" />
<glyph unicode="&#xfee0;&#xfe82;" arabic-form="final" d="M0 0zM-192 1634l160 123q103 -83 170 -104q42 -13 96 -13q58 0 100 16q107 41 194 117v-125q-90 -64 -180 -93q-66 -22 -120 -22q-34 0 -110 17t-144 87l-166 -128v125zM831 316q-59 -91 -132 -156q-202 -180 -363 -180q-106 0 -181 32v184q96 -32 181 -32q113 0 249 152 l-490 1094h179l426 -959q29 43 49 98q37 137 37 321v686h184v-956q0 -174 34 -258q64 -158 144 -158h105v-184h-129q-175 0 -277 243q-17 41 -16 73z" />
<glyph unicode="&#xfedf;&#xfe84;" arabic-form="isolated" d="M83 0zM83 1515zM83 1615l78 18q-44 20 -60 56q-17 37 -16 82q2 95 56 139q56 46 150 45q61 -1 114 -33v-100q-51 33 -114 33q-66 0 -83 -18q-29 -32 -29 -58q0 -77 94 -104q33 -10 153 19v-102l-343 -77v100zM1054 834q0 -300 -139 -518q-55 -85 -132 -156 q-205 -180 -363 -180q-106 0 -181 32v184q96 -32 181 -32q113 0 249 152l-490 1094h179l426 -959q29 43 49 98q37 137 37 321v686h184v-722z" />
<glyph unicode="&#xfee0;&#xfe84;" arabic-form="final" d="M0 0zM-32 1515zM-32 1615l78 18q-44 20 -60 56q-17 37 -16 82q2 95 56 139q56 46 150 45q61 -1 114 -33v-100q-51 33 -114 33q-66 0 -83 -18q-29 -32 -29 -58q0 -77 94 -104q33 -10 153 19v-102l-343 -77v100zM831 316q-59 -91 -132 -156q-202 -180 -363 -180 q-106 0 -181 32v184q96 -32 181 -32q113 0 249 152l-490 1094h179l426 -959q29 43 49 98q37 137 37 321v686h184v-956q0 -174 34 -258q64 -158 144 -158h105v-184h-129q-175 0 -277 243q-17 41 -16 73z" />
<glyph unicode="&#xfedf;&#xfe88;" arabic-form="isolated" d="M133 0zM133 -60zM133 -400l78 18q-44 20 -60 56q-17 37 -16 82q2 95 56 139q56 46 150 45q61 -1 114 -33v-100q-51 33 -114 33q-66 0 -83 -18q-29 -32 -29 -58q0 -77 94 -104q33 -10 153 19v-102l-343 -77v100zM1054 834q0 -300 -139 -518q-55 -85 -132 -156 q-205 -180 -363 -180q-106 0 -181 32v184q96 -32 181 -32q113 0 249 152l-490 1094h179l426 -959q29 43 49 98q37 137 37 321v686h184v-722z" />
<glyph unicode="&#xfee0;&#xfe88;" arabic-form="final" d="M95 0zM133 -60zM133 -400l78 18q-44 20 -60 56q-17 37 -16 82q2 95 56 139q56 46 150 45q61 -1 114 -33v-100q-51 33 -114 33q-66 0 -83 -18q-29 -32 -29 -58q0 -77 94 -104q33 -10 153 19v-102l-343 -77v100zM831 316q-59 -91 -132 -156q-202 -180 -363 -180 q-106 0 -181 32v184q96 -32 181 -32q113 0 249 152l-490 1094h179l426 -959q29 43 49 98q37 137 37 321v686h184v-956q0 -174 34 -258q64 -158 144 -158h105v-184h-129q-175 0 -277 243q-17 41 -16 73z" />
<glyph unicode="&#xfedf;&#xfe8e;" arabic-form="isolated" d="M1054 834q0 -300 -139 -518q-55 -85 -132 -156q-205 -180 -363 -180q-106 0 -181 32v184q96 -32 181 -32q113 0 249 152l-490 1094h179l426 -959q29 43 49 98q37 137 37 321v686h184v-722z" />
<glyph unicode="&#xfee0;&#xfe8e;" arabic-form="final" d="M831 316q-59 -91 -132 -156q-202 -180 -363 -180q-106 0 -181 32v184q96 -32 181 -32q113 0 249 152l-490 1094h179l426 -959q29 43 49 98q37 137 37 321v686h184v-956q0 -174 34 -258q64 -158 144 -158h105v-184h-129q-175 0 -277 243q-17 41 -16 73z" />
<glyph unicode="&#x67b;" arabic-form="isolated" d="M1174 539q26 -71 26 -203q0 -123 -166 -244q-152 -111 -431 -112q-223 -1 -377 56q-157 59 -157 284q0 62 41 186h184q-43 -138 -43 -186q0 -108 117 -138q98 -25 230 -25q188 0 294 65q123 76 123 182q0 64 -25 135h184zM542 -350h150v-150h-150v150zM542 -100h150v-150 h-150v150z" />
<glyph unicode="&#x67b;" arabic-form="final" d="M69 0zM543 -20q-186 0 -317 56q-157 65 -157 284q0 62 41 186h184q-43 -138 -43 -186q0 -108 117 -138q98 -25 225 -25q69 0 199 55q87 37 132 90q55 65 55 121q0 62 -29 117h184q19 -75 19 -165q0 -100 24 -151q19 -40 43 -40h33v-184h-75q-52 0 -99 44q-43 42 -63 121 q-88 -81 -184 -128q-116 -57 -289 -57zM508 -350h150v-150h-150v150zM508 -100h150v-150h-150v150z" />
<glyph unicode="&#x67b;" arabic-form="initial" d="M0 0zM608 86q-72 -86 -415 -86h-213v184h158q285 0 329 44q49 49 49 155v217h184v-217q0 -187 -92 -297zM524 -350h150v-150h-150v150zM524 -100h150v-150h-150v150z" />
<glyph unicode="&#x67b;" arabic-form="medial" d="M0 0zM606 86q-76 -86 -291 -86h-335v184h280q162 0 206 44q48 49 48 155v217h184v-217q0 -106 50 -155q44 -44 207 -44h298v-184h-353q-214 0 -294 86zM524 -350h150v-150h-150v150zM524 -100h150v-150h-150v150z" />
<glyph unicode="&#x67e;" arabic-form="isolated" d="M1174 539q26 -71 26 -203q0 -123 -166 -244q-152 -111 -431 -112q-223 -1 -377 56q-157 59 -157 284q0 62 41 186h184q-43 -138 -43 -186q0 -108 117 -138q98 -25 230 -25q188 0 294 65q123 76 123 182q0 64 -25 135h184zM570 -500h150v150h-150v-150zM695 -250h150v150 h-150v-150zM445 -250h150v150h-150v-150z" />
<glyph unicode="&#x67e;" arabic-form="final" d="M69 0zM543 -20q-186 0 -317 56q-157 65 -157 284q0 62 41 186h184q-43 -138 -43 -186q0 -108 117 -138q98 -25 225 -25q69 0 199 55q87 37 132 90q55 65 55 121q0 62 -29 117h184q19 -75 19 -165q0 -100 24 -151q19 -40 43 -40h33v-184h-75q-52 0 -99 44q-43 42 -63 121 q-88 -81 -184 -128q-116 -57 -289 -57zM501 -500h150v150h-150v-150zM626 -250h150v150h-150v-150zM376 -250h150v150h-150v-150z" />
<glyph unicode="&#x67e;" arabic-form="initial" d="M0 0zM608 86q-72 -86 -415 -86h-213v184h158q285 0 329 44q49 49 49 155v217h184v-217q0 -187 -92 -297zM521 -500h150v150h-150v-150zM646 -250h150v150h-150v-150zM396 -250h150v150h-150v-150z" />
<glyph unicode="&#x67e;" arabic-form="medial" d="M0 0zM606 86q-76 -86 -291 -86h-335v184h280q162 0 206 44q48 49 48 155v217h184v-217q0 -106 50 -155q44 -44 207 -44h298v-184h-353q-214 0 -294 86zM521 -500h150v150h-150v-150zM646 -250h150v150h-150v-150zM396 -250h150v150h-150v-150z" />
<glyph unicode="&#x680;" arabic-form="isolated" d="M1174 539q26 -71 26 -203q0 -123 -166 -244q-152 -111 -431 -112q-223 -1 -377 56q-157 59 -157 284q0 62 41 186h184q-43 -138 -43 -186q0 -108 117 -138q98 -25 230 -25q188 0 294 65q123 76 123 182q0 64 -25 135h184zM653 -350h150v-150h-150v150zM653 -100h150v-150 h-150v150zM403 -350h150v-150h-150v150zM403 -100h150v-150h-150v150z" />
<glyph unicode="&#x680;" arabic-form="final" d="M69 0zM543 -20q-186 0 -317 56q-157 65 -157 284q0 62 41 186h184q-43 -138 -43 -186q0 -108 117 -138q98 -25 225 -25q69 0 199 55q87 37 132 90q55 65 55 121q0 62 -29 117h184q19 -75 19 -165q0 -100 24 -151q19 -40 43 -40h33v-184h-75q-52 0 -99 44q-43 42 -63 121 q-88 -81 -184 -128q-116 -57 -289 -57zM620 -350h150v-150h-150v150zM620 -100h150v-150h-150v150zM370 -350h150v-150h-150v150zM370 -100h150v-150h-150v150z" />
<glyph unicode="&#x680;" arabic-form="initial" d="M0 0zM608 86q-72 -86 -415 -86h-213v184h158q285 0 329 44q49 49 49 155v217h184v-217q0 -187 -92 -297zM628 -350h150v-150h-150v150zM628 -100h150v-150h-150v150zM378 -350h150v-150h-150v150zM378 -100h150v-150h-150v150z" />
<glyph unicode="&#x680;" arabic-form="medial" d="M0 0zM606 86q-76 -86 -291 -86h-335v184h280q162 0 206 44q48 49 48 155v217h184v-217q0 -106 50 -155q44 -44 207 -44h298v-184h-353q-214 0 -294 86zM658 -350h150v-150h-150v150zM658 -100h150v-150h-150v150zM408 -350h150v-150h-150v150zM408 -100h150v-150h-150 v150z" />
<glyph unicode="&#x67a;" arabic-form="isolated" d="M1174 539q26 -71 26 -203q0 -123 -166 -244q-152 -111 -431 -112q-223 -1 -377 56q-157 59 -157 284q0 62 41 186h184q-43 -138 -43 -186q0 -108 117 -138q98 -25 230 -25q188 0 294 65q123 76 123 182q0 64 -25 135h184zM567 707h150v-150h-150v150zM567 957h150v-150 h-150v150z" />
<glyph unicode="&#x67a;" arabic-form="final" d="M69 0zM543 -20q-186 0 -317 56q-157 65 -157 284q0 62 41 186h184q-43 -138 -43 -186q0 -108 117 -138q98 -25 225 -25q69 0 199 55q87 37 132 90q55 65 55 121q0 62 -29 117h184q19 -75 19 -165q0 -100 24 -151q19 -40 43 -40h33v-184h-75q-52 0 -99 44q-43 42 -63 121 q-88 -81 -184 -128q-116 -57 -289 -57zM513 713h150v-150h-150v150zM513 963h150v-150h-150v150z" />
<glyph unicode="&#x67a;" arabic-form="initial" d="M0 0zM608 86q-72 -86 -415 -86h-213v184h158q285 0 329 44q49 49 49 155v217h184v-217q0 -187 -92 -297zM528 894h150v-150h-150v150zM528 1144h150v-150h-150v150z" />
<glyph unicode="&#x67a;" arabic-form="medial" d="M0 0zM606 86q-76 -86 -291 -86h-335v184h280q162 0 206 44q48 49 48 155v217h184v-217q0 -106 50 -155q44 -44 207 -44h298v-184h-353q-214 0 -294 86zM527 883h150v-150h-150v150zM527 1133h150v-150h-150v150z" />
<glyph unicode="&#x67f;" arabic-form="isolated" d="M1174 539q26 -71 26 -203q0 -123 -166 -244q-152 -111 -431 -112q-223 -1 -377 56q-157 59 -157 284q0 62 41 186h184q-43 -138 -43 -186q0 -108 117 -138q98 -25 230 -25q188 0 294 65q123 76 123 182q0 64 -25 135h184zM653 800h150v-150h-150v150zM653 1050h150v-150 h-150v150zM403 800h150v-150h-150v150zM403 1050h150v-150h-150v150z" />
<glyph unicode="&#x67f;" arabic-form="final" d="M69 0zM635 800h150v-150h-150v150zM635 1050h150v-150h-150v150zM385 800h150v-150h-150v150zM385 1050h150v-150h-150v150zM543 -20q-186 0 -317 56q-157 65 -157 284q0 62 41 186h184q-43 -138 -43 -186q0 -108 117 -138q98 -25 225 -25q69 0 199 55q87 37 132 90 q55 65 55 121q0 62 -29 117h184q19 -75 19 -165q0 -100 24 -151q19 -40 43 -40h33v-184h-75q-52 0 -99 44q-43 42 -63 121q-88 -81 -184 -128q-116 -57 -289 -57z" />
<glyph unicode="&#x67f;" arabic-form="initial" d="M0 0zM608 86q-72 -86 -415 -86h-213v184h158q285 0 329 44q49 49 49 155v217h184v-217q0 -187 -92 -297zM649 895h150v-150h-150v150zM649 1145h150v-150h-150v150zM399 895h150v-150h-150v150zM399 1145h150v-150h-150v150z" />
<glyph unicode="&#x67f;" arabic-form="medial" d="M0 0zM606 86q-76 -86 -291 -86h-335v184h280q162 0 206 44q48 49 48 155v217h184v-217q0 -106 50 -155q44 -44 207 -44h298v-184h-353q-214 0 -294 86zM646 898h150v-150h-150v150zM646 1148h150v-150h-150v150zM396 898h150v-150h-150v150zM396 1148h150v-150h-150v150z " />
<glyph unicode="&#x679;" arabic-form="isolated" d="M1174 539q26 -71 26 -203q0 -123 -166 -244q-152 -111 -431 -112q-223 -1 -377 56q-157 59 -157 284q0 62 41 186h184q-43 -138 -43 -186q0 -108 117 -138q98 -25 230 -25q188 0 294 65q123 76 123 182q0 64 -25 135h184zM641 712h55q77 0 100 13q53 33 53 54 q0 31 -30 47q-15 -4 -72 -26q-51 -20 -106 -88zM719 611h-175h-112v101h81v399h102v-321q36 73 140 113q63 24 133 -2q65 -25 65 -107q0 -91 -64 -141q-54 -42 -170 -42z" />
<glyph unicode="&#x679;" arabic-form="final" d="M69 0zM617 697h55q77 0 100 13q53 33 53 54q0 31 -30 47q-15 -4 -72 -26q-51 -20 -106 -88zM695 596h-175h-112v101h81v399h102v-321q36 73 140 113q63 24 133 -2q65 -25 65 -107q0 -91 -64 -141q-54 -42 -170 -42zM543 -20q-186 0 -317 56q-157 65 -157 284q0 62 41 186 h184q-43 -138 -43 -186q0 -108 117 -138q98 -25 225 -25q69 0 199 55q87 37 132 90q55 65 55 121q0 62 -29 117h184q19 -75 19 -165q0 -100 24 -151q19 -40 43 -40h33v-184h-75q-52 0 -99 44q-43 42 -63 121q-88 -81 -184 -128q-116 -57 -289 -57z" />
<glyph unicode="&#x679;" arabic-form="initial" d="M0 0zM608 86q-72 -86 -415 -86h-213v184h158q285 0 329 44q49 49 49 155v217h184v-217q0 -187 -92 -297zM640 870h55q77 0 100 13q53 33 53 54q0 31 -30 47q-15 -4 -72 -26q-51 -20 -106 -88zM718 769h-175h-112v101h81v399h102v-321q36 73 140 113q63 24 133 -2 q65 -25 65 -107q0 -91 -64 -141q-54 -42 -170 -42z" />
<glyph unicode="&#x679;" arabic-form="medial" d="M0 0zM606 86q-76 -86 -291 -86h-335v184h280q162 0 206 44q48 49 48 155v217h184v-217q0 -106 50 -155q44 -44 207 -44h298v-184h-353q-214 0 -294 86zM658 885h55q77 0 100 13q53 33 53 54q0 31 -30 47q-15 -4 -72 -26q-51 -20 -106 -88zM736 784h-175h-112v101h81v399 h102v-321q36 73 140 113q63 24 133 -2q65 -25 65 -107q0 -91 -64 -141q-54 -42 -170 -42z" />
<glyph unicode="&#x6a4;" arabic-form="isolated" d="M931 440q41 44 41 120q0 57 -66 110q-31 26 -75 24q-52 0 -92 -42t-41 -92q0 -82 55 -118q38 -26 82 -26q72 0 96 24zM1064 70q-105 -84 -272 -122q-178 -40 -343 -40q-163 0 -277 41q-244 88 -246 365q-2 138 34 230h184q-36 -94 -36 -230q0 -147 120 -192 q90 -34 221 -34q127 0 211 22q188 50 236 78q65 40 103 144q-63 -76 -185 -76q-133 0 -208 68q-98 86 -98 216q0 44 8 96q23 148 173 216q78 36 154 36q90 0 156 -50q96 -72 142 -174q23 -51 23 -190q0 -325 -100 -404zM753 1394h150v-150h-150v150zM878 1144h150v-150h-150 v150zM628 1144h150v-150h-150v150z" />
<glyph unicode="&#x6a4;" arabic-form="final" d="M0 0zM769 1286h150v-150h-150v150zM894 1036h150v-150h-150v150zM644 1036h150v-150h-150v150zM883 36q-61 -33 -179 -69q-182 -56 -306 -58q-139 -2 -252 38q-294 103 -296 367q0 138 64 230h184q-66 -94 -66 -230q0 -125 170 -194q71 -29 202 -29q112 0 263 58 q-34 27 -63 71q-82 124 -82 232q0 39 4 67q22 155 210 230q58 23 110 23q82 0 163 -50q139 -84 155 -233q4 -37 4 -67q0 -131 -80 -237q9 -1 16 -1h149v-184h-154q-105 0 -216 36zM883 223q104 65 104 174q0 20 -5 47q-14 71 -66 110q-34 25 -74 25q-24 0 -46 -10 q-61 -25 -80 -85q-6 -19 -6 -37q0 -43 41 -109q49 -78 132 -115z" />
<glyph unicode="&#x6a4;" arabic-form="initial" d="M0 0zM425 1550h150v-150h-150v150zM550 1300h150v-150h-150v150zM300 1300h150v-150h-150v150zM598 537q41 43 41 120q0 59 -66 110q-31 25 -75 24q-52 -1 -92 -43q-40 -41 -41 -92q0 -80 55 -118q40 -25 82 -25q72 0 96 24zM-20 184h241q84 0 235 23q79 12 139 105 q31 48 46 98q-63 -55 -160 -57q-130 -2 -208 67q-98 87 -98 216q0 52 8 96q23 148 173 217q78 36 154 36q90 0 156 -50q96 -72 142 -174q23 -51 23 -191q0 -208 -78 -351q-74 -136 -198 -180q-109 -39 -254 -39h-321v184z" />
<glyph unicode="&#x6a4;" arabic-form="medial" d="M0 0zM531 1296h150v-150h-150v150zM656 1046h150v-150h-150v150zM406 1046h150v-150h-150v150zM712 762q183 -80 208 -230q8 -50 8 -92q0 -73 -22 -122q-28 -67 -64 -117q38 -17 186 -17h225v-184h-315q-136 0 -322 57q-184 -57 -320 -57h-316v184h226q146 0 186 17 q-30 40 -66 117q-20 46 -20 122q0 44 8 92q23 143 208 230q30 14 94 14t96 -14zM616 592q-14 0 -32 -10q-56 -32 -80 -85q-10 -21 -10 -50q0 -43 24 -96q30 -68 98 -90q64 21 100 90q24 50 24 96q0 24 -10 50q-24 52 -80 85q-20 10 -34 10z" />
<glyph unicode="&#x6a6;" arabic-form="isolated" d="M931 440q41 44 41 120q0 57 -66 110q-31 26 -75 24q-52 0 -92 -42t-41 -92q0 -82 55 -118q38 -26 82 -26q72 0 96 24zM1064 70q-105 -84 -272 -122q-178 -40 -343 -40q-163 0 -277 41q-244 88 -246 365q-2 138 34 230h184q-36 -94 -36 -230q0 -147 120 -192 q90 -34 221 -34q127 0 211 22q188 50 236 78q65 40 103 144q-63 -76 -185 -76q-133 0 -208 68q-98 86 -98 216q0 44 8 96q23 148 173 216q78 36 154 36q90 0 156 -50q96 -72 142 -174q23 -51 23 -190q0 -325 -100 -404zM898 1156h150v-150h-150v150zM898 1406h150v-150h-150 v150zM648 1156h150v-150h-150v150zM648 1406h150v-150h-150v150z" />
<glyph unicode="&#x6a6;" arabic-form="final" d="M0 0zM902 1040h150v-150h-150v150zM902 1290h150v-150h-150v150zM652 1040h150v-150h-150v150zM652 1290h150v-150h-150v150zM883 36q-61 -33 -179 -69q-182 -56 -306 -58q-139 -2 -252 38q-294 103 -296 367q0 138 64 230h184q-66 -94 -66 -230q0 -125 170 -194 q71 -29 202 -29q112 0 263 58q-34 27 -63 71q-82 124 -82 232q0 39 4 67q22 155 210 230q58 23 110 23q82 0 163 -50q139 -84 155 -233q4 -37 4 -67q0 -131 -80 -237q9 -1 16 -1h149v-184h-154q-105 0 -216 36zM883 223q104 65 104 174q0 20 -5 47q-14 71 -66 110 q-34 25 -74 25q-24 0 -46 -10q-61 -25 -80 -85q-6 -19 -6 -37q0 -43 41 -109q49 -78 132 -115z" />
<glyph unicode="&#x6a6;" arabic-form="initial" d="M0 0zM550 1300h150v-150h-150v150zM550 1550h150v-150h-150v150zM300 1300h150v-150h-150v150zM300 1550h150v-150h-150v150zM598 537q41 43 41 120q0 59 -66 110q-31 25 -75 24q-52 -1 -92 -43q-40 -41 -41 -92q0 -80 55 -118q40 -25 82 -25q72 0 96 24zM-20 184h241 q84 0 235 23q79 12 139 105q31 48 46 98q-63 -55 -160 -57q-130 -2 -208 67q-98 87 -98 216q0 52 8 96q23 148 173 217q78 36 154 36q90 0 156 -50q96 -72 142 -174q23 -51 23 -191q0 -208 -78 -351q-74 -136 -198 -180q-109 -39 -254 -39h-321v184z" />
<glyph unicode="&#x6a6;" arabic-form="medial" d="M0 0zM660 1062h150v-150h-150v150zM660 1312h150v-150h-150v150zM410 1062h150v-150h-150v150zM410 1312h150v-150h-150v150zM712 762q183 -80 208 -230q8 -50 8 -92q0 -73 -22 -122q-28 -67 -64 -117q38 -17 186 -17h225v-184h-315q-136 0 -322 57q-184 -57 -320 -57 h-316v184h226q146 0 186 17q-30 40 -66 117q-20 46 -20 122q0 44 8 92q23 143 208 230q30 14 94 14t96 -14zM616 592q-14 0 -32 -10q-56 -32 -80 -85q-10 -21 -10 -50q0 -43 24 -96q30 -68 98 -90q64 21 100 90q24 50 24 96q0 24 -10 50q-24 52 -80 85q-20 10 -34 10z" />
<glyph unicode="&#x684;" arabic-form="isolated" d="M88 0zM88 807q276 64 471 63q292 -1 488 -54v-154q-294 13 -509 -167q-224 -188 -224 -435q0 -137 74 -231q129 -163 404 -164q193 0 405 118v-184q-150 -98 -400 -99q-364 -2 -533 194q-131 152 -131 374q0 258 212 481q96 101 233 153q-101 3 -260 -19 q-135 -19 -230 -60v184zM635 75h150v-150h-150v150zM635 325h150v-150h-150v150z" />
<glyph unicode="&#x684;" arabic-form="final" d="M88 0zM1233 184h40v-184h-49q-129 0 -252 150q-82 100 -143 256q-6 15 -79 193q-114 -24 -212 -104q-224 -183 -224 -435q0 -138 74 -231q129 -163 404 -164q193 0 405 118v-184q-150 -98 -400 -99q-364 -2 -533 194q-131 152 -131 374q0 258 212 481q96 101 233 153 q-101 3 -260 -19q-135 -19 -230 -60v184q276 64 471 63q292 -1 488 -54v-154q-109 -3 -140 -13l29 -91q51 -160 123 -255q90 -119 174 -119zM559 25h150v-150h-150v150zM559 275h150v-150h-150v150z" />
<glyph unicode="&#x684;" arabic-form="initial" d="M0 0zM353 -300h150v-150h-150v150zM353 -50h150v-150h-150v150zM851 541q-83 23 -186 46q-85 19 -265 35q-82 7 -243 1v184q72 7 147 8q162 0 334 -35q258 -52 478 -150v-154q-76 -24 -164 -76q-166 -98 -240 -164q-145 -129 -220 -156q-221 -80 -384 -80h-128v184h100 q227 0 356 72q104 58 220 164q94 86 195 121z" />
<glyph unicode="&#x684;" arabic-form="medial" d="M0 0zM525 -300h150v-150h-150v150zM525 -50h150v-150h-150v150zM638 780q258 -52 478 -150v-154q-65 -20 -138 -61q50 -78 80 -112q104 -119 158 -119h60v-184h-80q-151 0 -275 168q-40 54 -99 151q-69 -46 -110 -83q-145 -129 -220 -156q-221 -80 -384 -80h-128v184h100 q227 0 356 72q104 58 220 164q94 86 195 121q-83 23 -186 46q-85 19 -265 35q-82 7 -243 1v184q72 7 147 8q162 0 334 -35z" />
<glyph unicode="&#x683;" arabic-form="isolated" d="M88 0zM88 807q276 64 471 63q292 -1 488 -54v-154q-294 13 -509 -167q-224 -188 -224 -435q0 -137 74 -231q129 -163 404 -164q193 0 405 118v-184q-150 -98 -400 -99q-364 -2 -533 194q-131 152 -131 374q0 258 212 481q96 101 233 153q-101 3 -260 -19 q-135 -19 -230 -60v184zM900 175h150v-150h-150v150zM650 175h150v-150h-150v150z" />
<glyph unicode="&#x683;" arabic-form="final" d="M88 0zM1233 184h40v-184h-49q-129 0 -252 150q-82 100 -143 256q-6 15 -79 193q-114 -24 -212 -104q-224 -183 -224 -435q0 -138 74 -231q129 -163 404 -164q193 0 405 118v-184q-150 -98 -400 -99q-364 -2 -533 194q-131 152 -131 374q0 258 212 481q96 101 233 153 q-101 3 -260 -19q-135 -19 -230 -60v184q276 64 471 63q292 -1 488 -54v-154q-109 -3 -140 -13l29 -91q51 -160 123 -255q90 -119 174 -119zM800 125h150v-150h-150v150zM550 125h150v-150h-150v150z" />
<glyph unicode="&#x683;" arabic-form="initial" d="M0 0zM438 -50h150v-150h-150v150zM188 -50h150v-150h-150v150zM851 541q-83 23 -186 46q-85 19 -265 35q-82 7 -243 1v184q72 7 147 8q162 0 334 -35q258 -52 478 -150v-154q-76 -24 -164 -76q-166 -98 -240 -164q-145 -129 -220 -156q-221 -80 -384 -80h-128v184h100 q227 0 356 72q104 58 220 164q94 86 195 121z" />
<glyph unicode="&#x683;" arabic-form="medial" d="M0 0zM650 -50h150v-150h-150v150zM400 -50h150v-150h-150v150zM638 780q258 -52 478 -150v-154q-65 -20 -138 -61q50 -78 80 -112q104 -119 158 -119h60v-184h-80q-151 0 -275 168q-40 54 -99 151q-69 -46 -110 -83q-145 -129 -220 -156q-221 -80 -384 -80h-128v184h100 q227 0 356 72q104 58 220 164q94 86 195 121q-83 23 -186 46q-85 19 -265 35q-82 7 -243 1v184q72 7 147 8q162 0 334 -35z" />
<glyph unicode="&#x686;" arabic-form="isolated" d="M88 0zM88 807q276 64 471 63q292 -1 488 -54v-154q-294 13 -509 -167q-224 -188 -224 -435q0 -137 74 -231q129 -163 404 -164q193 0 405 118v-184q-150 -98 -400 -99q-364 -2 -533 194q-131 152 -131 374q0 258 212 481q96 101 233 153q-101 3 -260 -19 q-135 -19 -230 -60v184zM679 -100h150v150h-150v-150zM804 150h150v150h-150v-150zM554 150h150v150h-150v-150z" />
<glyph unicode="&#x686;" arabic-form="final" d="M88 0zM1233 184h40v-184h-49q-129 0 -252 150q-82 100 -143 256q-6 15 -79 193q-114 -24 -212 -104q-224 -183 -224 -435q0 -138 74 -231q129 -163 404 -164q193 0 405 118v-184q-150 -98 -400 -99q-364 -2 -533 194q-131 152 -131 374q0 258 212 481q96 101 233 153 q-101 3 -260 -19q-135 -19 -230 -60v184q276 64 471 63q292 -1 488 -54v-154q-109 -3 -140 -13l29 -91q51 -160 123 -255q90 -119 174 -119zM578 -184h150v150h-150v-150zM703 66h150v150h-150v-150zM453 66h150v150h-150v-150z" />
<glyph unicode="&#x686;" arabic-form="initial" d="M0 0zM365 -490h150v150h-150v-150zM490 -240h150v150h-150v-150zM240 -240h150v150h-150v-150zM851 541q-83 23 -186 46q-85 19 -265 35q-82 7 -243 1v184q72 7 147 8q162 0 334 -35q258 -52 478 -150v-154q-76 -24 -164 -76q-166 -98 -240 -164q-145 -129 -220 -156 q-221 -80 -384 -80h-128v184h100q227 0 356 72q104 58 220 164q94 86 195 121z" />
<glyph unicode="&#x686;" arabic-form="medial" d="M0 0zM525 -450h150v150h-150v-150zM650 -200h150v150h-150v-150zM400 -200h150v150h-150v-150zM638 780q258 -52 478 -150v-154q-65 -20 -138 -61q50 -78 80 -112q104 -119 158 -119h60v-184h-80q-151 0 -275 168q-40 54 -99 151q-69 -46 -110 -83q-145 -129 -220 -156 q-221 -80 -384 -80h-128v184h100q227 0 356 72q104 58 220 164q94 86 195 121q-83 23 -186 46q-85 19 -265 35q-82 7 -243 1v184q72 7 147 8q162 0 334 -35z" />
<glyph unicode="&#x687;" arabic-form="isolated" d="M88 0zM88 807q276 64 471 63q292 -1 488 -54v-154q-294 13 -509 -167q-224 -188 -224 -435q0 -137 74 -231q129 -163 404 -164q193 0 405 118v-184q-150 -98 -400 -99q-364 -2 -533 194q-131 152 -131 374q0 258 212 481q96 101 233 153q-101 3 -260 -19 q-135 -19 -230 -60v184zM812 75h150v-150h-150v150zM812 325h150v-150h-150v150zM562 75h150v-150h-150v150zM562 325h150v-150h-150v150z" />
<glyph unicode="&#x687;" arabic-form="final" d="M88 0zM1233 184h40v-184h-49q-129 0 -252 150q-82 100 -143 256q-6 15 -79 193q-114 -24 -212 -104q-224 -183 -224 -435q0 -138 74 -231q129 -163 404 -164q193 0 405 118v-184q-150 -98 -400 -99q-364 -2 -533 194q-131 152 -131 374q0 258 212 481q96 101 233 153 q-101 3 -260 -19q-135 -19 -230 -60v184q276 64 471 63q292 -1 488 -54v-154q-109 -3 -140 -13l29 -91q51 -160 123 -255q90 -119 174 -119zM703 -6h150v-150h-150v150zM703 244h150v-150h-150v150zM453 -6h150v-150h-150v150zM453 244h150v-150h-150v150z" />
<glyph unicode="&#x687;" arabic-form="initial" d="M0 0zM502 -340h150v-150h-150v150zM502 -90h150v-150h-150v150zM252 -340h150v-150h-150v150zM252 -90h150v-150h-150v150zM851 541q-83 23 -186 46q-85 19 -265 35q-82 7 -243 1v184q72 7 147 8q162 0 334 -35q258 -52 478 -150v-154q-76 -24 -164 -76 q-166 -98 -240 -164q-145 -129 -220 -156q-221 -80 -384 -80h-128v184h100q227 0 356 72q104 58 220 164q94 86 195 121z" />
<glyph unicode="&#x687;" arabic-form="medial" d="M0 0zM650 -300h150v-150h-150v150zM650 -50h150v-150h-150v150zM400 -300h150v-150h-150v150zM400 -50h150v-150h-150v150zM638 780q258 -52 478 -150v-154q-65 -20 -138 -61q50 -78 80 -112q104 -119 158 -119h60v-184h-80q-151 0 -275 168q-40 54 -99 151 q-69 -46 -110 -83q-145 -129 -220 -156q-221 -80 -384 -80h-128v184h100q227 0 356 72q104 58 220 164q94 86 195 121q-83 23 -186 46q-85 19 -265 35q-82 7 -243 1v184q72 7 147 8q162 0 334 -35z" />
<glyph unicode="&#x698;" arabic-form="isolated" d="M0 0zM901 154q10 58 10 130q0 126 -53 262h184q50 -118 50 -250q0 -82 -8 -144q-41 -331 -372 -504q-273 -143 -764 -152v184q444 0 664 128q255 146 289 346zM845 1078h150v-150h-150v150zM970 828h150v-150h-150v150zM720 828h150v-150h-150v150z" />
<glyph unicode="&#x698;" arabic-form="final" d="M0 0zM729 1092h150v-150h-150v150zM854 842h150v-150h-150v150zM604 842h150v-150h-150v150zM750 550h184q30 -112 33 -142q10 -103 83 -180q42 -44 143 -44h60v-184h-115q-130 0 -180 62q-57 -253 -354 -411q-284 -151 -764 -151v184q445 0 664 128q255 149 289 346 q10 58 10 130q0 126 -53 262z" />
<glyph unicode="&#x691;" arabic-form="isolated" d="M0 0zM906 780h55q77 0 100 13q53 33 53 54q0 31 -30 47q-15 -4 -72 -26q-51 -20 -106 -88zM984 679h-175h-112v101h81v399h102v-321q36 73 140 113q63 24 133 -2q65 -25 65 -107q0 -91 -64 -141q-54 -42 -170 -42zM901 154q10 58 10 130q0 126 -53 262h184 q50 -118 50 -250q0 -82 -8 -144q-41 -331 -372 -504q-273 -143 -764 -152v184q444 0 664 128q255 146 289 346z" />
<glyph unicode="&#x691;" arabic-form="final" d="M0 0zM798 757h55q77 0 100 13q53 33 53 54q0 31 -30 47q-15 -4 -72 -26q-51 -20 -106 -88zM876 656h-175h-112v101h81v399h102v-321q36 73 140 113q63 24 133 -2q65 -25 65 -107q0 -91 -64 -141q-54 -42 -170 -42zM750 550h184q30 -112 33 -142q10 -103 83 -180 q42 -44 143 -44h60v-184h-115q-130 0 -180 62q-57 -253 -354 -411q-284 -151 -764 -151v184q445 0 664 128q255 149 289 346q10 58 10 130q0 126 -53 262z" />
<glyph unicode="&#x6a9;" arabic-form="isolated" d="M10 0zM550 88q162 0 271 53t163 113q52 57 52 142q0 57 -95 162l-183 202q-62 68 -62 139q0 84 18 115q46 79 132 144l527 398v-209l-408 -318q-71 -55 -71 -101q0 -63 32 -98l148 -162q142 -155 142 -266q0 -157 -104 -274q-82 -92 -246 -170q-99 -47 -306 -47 q-112 0 -220 32q-330 98 -330 365q0 138 63 230h184q-65 -94 -65 -230q0 -120 203 -192q79 -28 155 -28z" />
<glyph unicode="&#x6a9;" arabic-form="final" d="M1013 182q-25 -50 -73 -90q-81 -73 -209 -134q-99 -47 -306 -47q-112 0 -220 32q-330 98 -330 365q0 138 63 230h184q-65 -94 -65 -230q0 -120 203 -192q79 -28 155 -28q162 0 271 53t163 113q52 57 52 91q0 49 -41 115l-182 300q-62 102 -62 139q0 84 18 115 q46 79 132 144l526 398v-209l-408 -318q-70 -55 -70 -101q0 -78 18 -107l356 -574q40 -63 80 -63h38v-184h-42q-61 0 -96 18q-62 30 -82 60z" />
<glyph unicode="&#x6a9;" arabic-form="initial" d="M0 0zM402 0h-422v184h402q147 0 193 104q16 36 16 72q0 69 -54 135l-310 380q-50 61 -50 142q0 30 10 68q31 118 135 161l745 310v-186l-595 -250q-71 -30 -92 -70q-6 -11 -6 -36q0 -32 31 -69l275 -330q102 -122 102 -246q0 -113 -62 -214q-95 -155 -318 -155z" />
<glyph unicode="&#x6a9;" arabic-form="medial" d="M0 0zM412 0h-432v184h412q147 0 194 104q16 36 16 72q0 69 -54 135l-310 380q-50 61 -50 142q0 30 10 68q30 118 134 161l746 310v-186l-596 -250q-70 -30 -92 -70q-6 -11 -6 -36q0 -32 32 -69l582 -705q22 -26 60 -40q44 -16 108 -16h88v-184h-132q-66 0 -124 24 q-102 43 -136 84l-96 120q-22 -46 -38 -73q-96 -155 -316 -155z" />
<glyph unicode="&#x6af;" arabic-form="isolated" d="M10 0zM550 88q162 0 271 53t163 113q52 57 52 142q0 57 -95 162l-183 202q-62 68 -62 139q0 84 18 115q46 79 132 144l527 398v-209l-408 -318q-71 -55 -71 -101q0 -63 32 -98l148 -162q142 -155 142 -266q0 -157 -104 -274q-82 -92 -246 -170q-99 -47 -306 -47 q-112 0 -220 32q-330 98 -330 365q0 138 63 230h184q-65 -94 -65 -230q0 -120 203 -192q79 -28 155 -28zM1379 1684l-695 -530v178l695 530v-178z" />
<glyph unicode="&#x6af;" arabic-form="final" d="M0 0zM1291 1688l-695 -530v178l695 530v-178zM1013 182q-25 -50 -73 -90q-81 -73 -209 -134q-99 -47 -306 -47q-112 0 -220 32q-330 98 -330 365q0 138 63 230h184q-65 -94 -65 -230q0 -120 203 -192q79 -28 155 -28q162 0 271 53t163 113q52 57 52 91q0 49 -41 115 l-182 300q-62 102 -62 139q0 84 18 115q46 79 132 144l526 398v-209l-408 -318q-70 -55 -70 -101q0 -78 18 -107l356 -574q40 -63 80 -63h38v-184h-42q-61 0 -96 18q-62 30 -82 60z" />
<glyph unicode="&#x6af;" arabic-form="initial" d="M0 0zM1067 1671l-924 -403v178l924 403v-178zM0 0zM402 0h-422v184h402q147 0 193 104q16 36 16 72q0 69 -54 135l-310 380q-50 61 -50 142q0 30 10 68q31 118 135 161l745 310v-186l-595 -250q-71 -30 -92 -70q-6 -11 -6 -36q0 -32 31 -69l275 -330q102 -122 102 -246 q0 -113 -62 -214q-95 -155 -318 -155z" />
<glyph unicode="&#x6af;" arabic-form="medial" d="M0 0zM1080 1671l-924 -403v178l924 403v-178zM0 0zM412 0h-432v184h412q147 0 194 104q16 36 16 72q0 69 -54 135l-310 380q-50 61 -50 142q0 30 10 68q30 118 134 161l746 310v-186l-596 -250q-70 -30 -92 -70q-6 -11 -6 -36q0 -32 32 -69l582 -705q22 -26 60 -40 q44 -16 108 -16h88v-184h-132q-66 0 -124 24q-102 43 -136 84l-96 120q-22 -46 -38 -73q-96 -155 -316 -155z" />
<glyph unicode="&#x6ba;" arabic-form="isolated" d="M1165 255q0 -187 -100 -351q-71 -116 -213 -176q-140 -59 -269 -59q-172 0 -295 63q-234 120 -234 394q0 174 53 316h184q-55 -174 -55 -316q0 -180 161 -247q57 -24 186 -24q84 0 147 20q157 51 215 218q34 98 34 194q0 249 -70 401h184q72 -159 72 -433z" />
<glyph unicode="&#x6ba;" arabic-form="final" d="M968 -265q-71 -116 -213 -176q-140 -59 -269 -59q-172 0 -295 63q-234 120 -234 394q0 174 53 316h184q-55 -174 -55 -316q0 -180 161 -247q57 -24 186 -24q84 0 147 20q157 51 215 218q33 94 33 213q0 184 -101 387h184q17 -51 52 -136q34 -84 65 -140q35 -64 121 -64 h52v-184h-94q-87 0 -101 48q-6 -173 -91 -313z" />
<glyph unicode="&#x6be;" arabic-form="isolated" d="M0 0zM331 0q-146 0 -213 36q-118 64 -118 192q0 75 16 128h184q-14 -58 -14 -102q0 -43 30 -54q45 -16 85 -16q59 0 130 11q-45 105 -60 174q-18 78 -18 142q0 84 45 167q48 90 125 81q-44 39 -125 53v185q219 -67 439 -247q261 -214 320 -431q14 -52 14 -109 q0 -103 -40 -164q-74 -113 -249 -113q-131 0 -285 108q-120 -41 -266 -41zM618 269q36 27 70 91q39 72 39 133q0 46 -15 83q-22 52 -80 52q-65 0 -88 -45q-22 -43 -22 -78q0 -30 7 -67q21 -118 89 -169zM877 508q6 -37 6 -76q0 -138 -98 -252q-12 -14 -29 -33 q52 -46 101 -46q126 0 142 67q7 30 7 63q0 60 -33 138q-29 69 -96 139z" />
<glyph unicode="&#x6be;" arabic-form="final" d="M1168 184h98v-184h-376q-190 0 -264 52q-131 -51 -295 -52q-145 -1 -213 36q-118 64 -118 192q0 75 16 128h184q-14 -58 -14 -102q0 -43 30 -54q45 -16 85 -16q48 0 151 16q-58 67 -81 169q-18 78 -18 142q0 84 45 167q48 90 125 81q-44 39 -125 53v185q212 -65 439 -247 q249 -200 320 -431q24 -79 11 -135zM618 269q36 27 70 91q39 72 39 133q0 46 -15 83q-22 52 -80 52q-65 0 -88 -45q-22 -43 -22 -78q0 -30 7 -67q21 -118 89 -169zM877 508q13 -95 -9 -180q-25 -91 -78 -140q28 -21 67 -21q129 0 142 67q5 31 0 63q-6 34 -26 72 q-51 95 -96 139z" />
<glyph unicode="&#x6be;" arabic-form="initial" d="M0 0zM442 269q36 27 70 91q39 72 39 133q0 46 -15 83q-22 52 -80 52q-65 0 -88 -45q-22 -43 -22 -78q0 -30 7 -67q21 -118 89 -169zM125 184q52 0 130 11q-45 105 -60 174q-18 78 -18 142q0 84 45 167q48 90 125 81q-44 39 -125 53v185q219 -67 439 -247 q261 -214 320 -431q14 -52 14 -109q0 -103 -40 -164q-74 -113 -249 -113q-131 0 -285 108q-120 -41 -266 -41h-175v184h145zM701 508q6 -37 6 -76q0 -138 -98 -252q-12 -14 -29 -33q52 -46 101 -46q126 0 142 67q7 30 7 63q0 60 -33 138q-29 69 -96 139z" />
<glyph unicode="&#x6be;" arabic-form="medial" d="M348 200q-58 67 -81 169q-18 78 -18 142q0 84 45 167q48 90 125 81q-44 39 -125 53v185q212 -65 439 -247q249 -200 320 -431q24 -79 11 -135h202v-184h-480q-190 0 -264 52q-134 -52 -295 -52h-247v184h238q70 0 130 16zM514 269q36 27 70 91q39 72 39 133q0 46 -15 83 q-22 52 -80 52q-65 0 -88 -45q-22 -43 -22 -78q0 -30 7 -67q21 -118 89 -169zM773 508q13 -95 -9 -180q-25 -91 -78 -140q28 -21 67 -21q129 0 142 67q5 31 0 63q-6 34 -26 72q-51 95 -96 139z" />
<glyph unicode="&#x649;" arabic-form="initial" d="M608 86q-72 -86 -415 -86h-213v184h158q285 0 329 44q49 49 49 155v217h184v-217q0 -187 -92 -297z" />
<glyph unicode="&#x649;" arabic-form="medial" d="M606 86q-76 -86 -291 -86h-335v184h280q162 0 206 44q48 49 48 155v217h184v-217q0 -106 50 -155q44 -44 207 -44h298v-184h-353q-214 0 -294 86z" />
<glyph unicode="&#x6cc;" arabic-form="isolated" d="M25 0zM1145 12q-132 -195 -356 -243q-177 -38 -270 -38q-129 0 -201 26q-293 104 -293 365q0 117 63 230h184q-66 -131 -65 -230q2 -147 166 -192q75 -20 158 -20q120 0 228 35q107 35 172 113q59 71 59 105q0 46 -27 88q-34 51 -166 109q-98 44 -97 175q1 150 95 211 q77 50 173 50q143 0 198 -73q50 -66 67 -203h-184q0 61 -19 86q-27 34 -66 30q-20 -2 -44 -22q-35 -30 -35 -87q0 -41 125 -85q91 -32 146 -135q31 -58 32 -152q1 -77 -43 -143z" />
<glyph unicode="&#x6cc;" arabic-form="final" d="M0 0zM769 51q-2 44 -11 56q-24 36 -48 61q-44 46 -44 107q0 78 41 125q77 91 164 108q29 6 73 6q130 0 176 -138q64 -192 98 -192h35v-184h-35q-127 0 -194 172q-64 165 -94 165q-34 -1 -50 -17q-20 -18 -20 -50q0 -3 42 -72q53 -87 53 -147q0 -83 -78 -166 q-104 -111 -285 -137q-140 -20 -216 -20q-121 0 -268 36q-228 56 -240 254q-6 92 30 230h178q-26 -80 -26 -196q1 -106 142 -132q69 -13 182 -13q130 0 188 17q128 37 148 52q60 46 59 75z" />
<glyph unicode="&#x6cc;" arabic-form="initial" d="M0 0zM641 -150h150v-150h-150v150zM391 -150h150v-150h-150v150zM608 86q-72 -86 -415 -86h-213v184h158q285 0 329 44q49 49 49 155v217h184v-217q0 -187 -92 -297z" />
<glyph unicode="&#x6cc;" arabic-form="medial" d="M0 0zM653 -150h150v-150h-150v150zM403 -150h150v-150h-150v150zM606 86q-76 -86 -291 -86h-335v184h280q162 0 206 44q48 49 48 155v217h184v-217q0 -106 50 -155q44 -44 207 -44h298v-184h-353q-214 0 -294 86z" />
<glyph unicode="&#xfe70;" arabic-form="isolated" d="M324 1210zM324 1450v110l584 130v-110zM324 1210v110l584 130v-110z" />
<glyph unicode="&#xfe71;" arabic-form="medial" d="M0 0zM324 1450v110l584 130v-110zM324 1210v110l584 130v-110zM-20 0v184h1273v-184h-1273z" />
<glyph unicode="&#xfe72;" arabic-form="isolated" d="M324 1210zM628 1380q36 36 58 78q-33 7 -56 20q-108 57 -108 151q0 87 68 139q29 21 92 21q73 0 112 -39q56 -54 56 -133q0 -39 -13 -77q19 -1 33 -1q19 -1 38 -1v-110q-46 0 -66 2l-52 5q-26 -61 -102 -139q-84 -86 -178 -86q-115 0 -170 154q-16 41 -16 154h90 q0 -97 12 -123q36 -75 84 -75q56 0 118 60zM724 1558q4 7 6 14q10 21 10 45q0 34 -17 48t-37 14q-24 0 -34 -9q-18 -13 -18 -41q0 -37 44 -55q20 -8 46 -16z" />
<glyph unicode="&#xfe74;" arabic-form="isolated" d="M324 -10zM324 -490v110l584 130v-110zM324 -250v110l584 130v-110z" />
<glyph unicode="&#xfe76;" arabic-form="isolated" d="M324 1210zM324 1210v110l584 130v-110z" />
<glyph unicode="&#xfe77;" arabic-form="medial" d="M0 0zM-20 0v184h1273v-184h-1273zM324 1210v110l584 130v-110z" />
<glyph unicode="&#xfe78;" arabic-form="isolated" d="M324 1209zM658 1466q-9 2 -28 12q-108 56 -108 151q0 87 68 139q29 21 92 21q73 0 112 -39q56 -54 56 -133q0 -32 -15 -77q17 -1 35 -1q19 -1 38 -1v-110q-34 0 -66 2q-31 2 -58 5q-43 -61 -112 -103q-201 -123 -348 -123v110q153 0 292 109q22 18 42 38zM724 1558 q4 7 6 14q10 21 10 45q0 34 -18 48q-16 14 -36 14q-24 0 -34 -9q-18 -13 -18 -41q0 -37 44 -55q20 -8 46 -16z" />
<glyph unicode="&#xfe79;" arabic-form="medial" d="M0 0zM-20 0v184h1273v-184h-1273zM658 1466q-9 2 -28 12q-108 56 -108 151q0 87 68 139q29 21 92 21q73 0 112 -39q56 -54 56 -133q0 -32 -15 -77q17 -1 35 -1q19 -1 38 -1v-110q-34 0 -66 2q-31 2 -58 5q-43 -61 -112 -103q-201 -123 -348 -123v110q153 0 292 109 q22 18 42 38zM724 1558q4 7 6 14q10 21 10 45q0 34 -18 48q-16 14 -36 14q-24 0 -34 -9q-18 -13 -18 -41q0 -37 44 -55q20 -8 46 -16z" />
<glyph unicode="&#xfe7a;" arabic-form="isolated" d="M324 -40zM324 -280v110l584 130v-110z" />
<glyph unicode="&#xfe7b;" arabic-form="medial" d="M0 0zM-20 0v184h1273v-184h-1273zM324 -280v110l584 130v-110z" />
<glyph unicode="&#xfe7c;" arabic-form="isolated" d="M304 1227zM632 1412q-15 -77 -48 -116q-57 -68 -126 -69q-79 -2 -120 63q-34 50 -34 161q0 109 16 207h97q-12 -125 -11 -181q3 -84 25 -118q19 -28 69 -5q61 26 65 194q2 82 2 171h96q0 -36 3 -90q14 -197 89 -195q71 1 71 174q0 115 -13 172h103q15 -73 12 -189 q-3 -133 -27 -187q-38 -88 -128 -99q-71 -9 -102 24q-27 30 -39 83z" />
<glyph unicode="&#xfe7d;" arabic-form="medial" d="M0 0zM-20 0v184h1273v-184h-1273zM632 1412q-15 -77 -48 -116q-57 -68 -126 -69q-79 -2 -120 63q-34 50 -34 161q0 109 16 207h97q-12 -125 -11 -181q3 -84 25 -118q19 -28 69 -5q61 26 65 194q2 82 2 171h96q0 -36 3 -90q14 -197 89 -195q71 1 71 174q0 115 -13 172h103 q15 -73 12 -189q-3 -133 -27 -187q-38 -88 -128 -99q-71 -9 -102 24q-27 30 -39 83z" />
<glyph unicode="&#xfe7e;" arabic-form="isolated" d="M342 1249zM768 1524q0 63 -44 107t-108 44t-108 -43.5t-44 -107.5q0 -65 44 -108.5t108 -43.5t108 44t44 108zM890 1524q0 -115 -79 -195t-195 -80q-114 0 -194 80t-80 195t80 194.5t194 79.5q116 0 195 -79.5t79 -194.5z" />
<glyph unicode="&#xfe7f;" arabic-form="medial" d="M0 0zM768 1524q0 63 -44 107t-108 44t-108 -43.5t-44 -107.5q0 -65 44 -108.5t108 -43.5t108 44t44 108zM890 1524q0 -115 -79 -195t-195 -80q-114 0 -194 80t-80 195t80 194.5t194 79.5q116 0 195 -79.5t79 -194.5zM-20 0v184h1273v-184h-1273z" />
<glyph unicode="&#x621;" arabic-form="isolated" d="M434 85zM434 85v176q47 6 130 31q68 20 120 53q-142 24 -193 100q-53 79 -53 163q0 65 21 140q30 118 133 181q99 61 197 61q110 0 200 -22v-185q-100 31 -170 29q-51 -1 -100 -27q-96 -48 -95 -160q0 -115 200 -165q57 -14 115 1q72 19 130 54v-185q-90 -60 -295 -140 q-231 -90 -340 -105z" />
<glyph unicode="&#x622;" arabic-form="isolated" d="M256 0zM524 1556h184v-1556h-184v1556zM256 1784l160 123q103 -83 170 -104q42 -13 96 -13q58 0 100 16q107 41 194 117v-125q-90 -64 -180 -93q-66 -22 -120 -22q-34 0 -110 17t-144 87l-166 -128v125z" />
<glyph unicode="&#x622;" arabic-form="final" d="M256 0zM256 1784l160 123q103 -83 170 -104q42 -13 96 -13q58 0 100 16q107 41 194 117v-125q-90 -64 -180 -93q-66 -22 -120 -22q-34 0 -110 17t-144 87l-166 -128v125zM588 371v1185h184v-1173q0 -106 50 -155q44 -44 224 -44h208v-184h-264q-234 0 -314 92 q-88 101 -88 279z" />
<glyph unicode="&#x623;" arabic-form="isolated" d="M435 0zM524 1556h184v-1556h-184v1556zM435 1665zM435 1765l78 18q-44 20 -60 56q-17 37 -16 82q2 95 56 139q56 46 150 45q61 -1 114 -33v-100q-51 33 -114 33q-66 0 -83 -18q-29 -32 -29 -58q0 -77 94 -104q33 -10 153 19v-102l-343 -77v100z" />
<glyph unicode="&#x623;" arabic-form="final" d="M484 0zM484 1665zM484 1765l78 18q-44 20 -60 56q-17 37 -16 82q2 95 56 139q56 46 150 45q61 -1 114 -33v-100q-51 33 -114 33q-66 0 -83 -18q-29 -32 -29 -58q0 -77 94 -104q33 -10 153 19v-102l-343 -77v100zM588 371v1185h184v-1173q0 -106 50 -155q44 -44 224 -44 h208v-184h-264q-234 0 -314 92q-88 101 -88 279z" />
<glyph unicode="&#x624;" arabic-form="isolated" d="M76 0zM737 452q-63 0 -107 -57q-24 -33 -24 -69q0 -55 51 -98q47 -40 239 -44q0 184 -86 243q-37 25 -73 25zM1075 184q0 -294 -172 -468q-45 -46 -231 -130q-190 -86 -596 -86v184q371 0 532 76q224 104 273 243q-118 3 -163 10q-139 24 -190 67q-116 98 -116 235 q0 217 211 307q57 24 119 24q89 0 161 -51q131 -91 155 -233q17 -102 17 -178zM541 765zM541 865l78 18q-44 20 -60 56q-17 37 -16 82q2 95 56 139q56 46 150 45q61 -1 114 -33v-100q-51 33 -114 33q-66 0 -83 -18q-29 -32 -29 -58q0 -77 94 -104q33 -10 153 19v-102 l-343 -77v100z" />
<glyph unicode="&#x624;" arabic-form="final" d="M90 0zM495 765zM495 865l78 18q-44 20 -60 56q-17 37 -16 82q2 95 56 139q56 46 150 45q61 -1 114 -33v-100q-51 33 -114 33q-66 0 -83 -18q-29 -32 -29 -58q0 -77 94 -104q33 -10 153 19v-102l-343 -77v100zM828 184q0 76 -16 133q-24 80 -70 110q-60 41 -120 15 q-67 -29 -80 -85q-17 -75 47 -129q47 -40 239 -44zM1007 184h246v-184h-194l-70 1q-25 -156 -154 -285q-83 -83 -188 -130q-192 -86 -557 -86v184q361 0 493 76q168 95 230 243q-118 3 -163 10q-139 24 -190 67q-106 89 -116 224q-2 31 8 88q27 155 203 230q59 25 124 24 q87 -2 156 -51q133 -92 155 -233q13 -83 17 -178z" />
<glyph unicode="&#x625;" arabic-form="isolated" d="M438 0zM524 1556h184v-1556h-184v1556zM438 -60zM438 -400l78 18q-44 20 -60 56q-17 37 -16 82q2 95 56 139q56 46 150 45q61 -1 114 -33v-100q-51 33 -114 33q-66 0 -83 -18q-29 -32 -29 -58q0 -77 94 -104q33 -10 153 19v-102l-343 -77v100z" />
<glyph unicode="&#x625;" arabic-form="final" d="M531 0zM531 -60zM531 -400l78 18q-44 20 -60 56q-17 37 -16 82q2 95 56 139q56 46 150 45q61 -1 114 -33v-100q-51 33 -114 33q-66 0 -83 -18q-29 -32 -29 -58q0 -77 94 -104q33 -10 153 19v-102l-343 -77v100zM588 371v1185h184v-1173q0 -106 50 -155q44 -44 224 -44 h208v-184h-264q-234 0 -314 92q-88 101 -88 279z" />
<glyph unicode="&#x626;" arabic-form="isolated" d="M25 0zM1145 12q-132 -195 -356 -243q-177 -38 -270 -38q-129 0 -201 26q-293 104 -293 365q0 117 63 230h184q-66 -131 -65 -230q2 -147 166 -192q75 -20 158 -20q120 0 228 35q107 35 172 113q59 71 59 105q0 46 -27 88q-34 51 -166 109q-98 44 -97 175q1 150 95 211 q77 50 173 50q143 0 198 -73q50 -66 67 -203h-184q0 61 -19 86q-27 34 -66 30q-20 -2 -44 -22q-35 -30 -35 -87q0 -41 125 -85q91 -32 146 -135q31 -58 32 -152q1 -77 -43 -143zM278 670zM278 770l78 18q-44 20 -60 56q-17 37 -16 82q2 95 56 139q56 46 150 45 q61 -1 114 -33v-100q-51 33 -114 33q-66 0 -83 -18q-29 -32 -29 -58q0 -77 94 -104q33 -10 153 19v-102l-343 -77v100z" />
<glyph unicode="&#x626;" arabic-form="final" d="M0 0zM161 423zM161 523l78 18q-44 20 -60 56q-17 37 -16 82q2 95 56 139q56 46 150 45q61 -1 114 -33v-100q-51 33 -114 33q-66 0 -83 -18q-29 -32 -29 -58q0 -77 94 -104q33 -10 153 19v-102l-343 -77v100zM769 51q-2 44 -11 56q-24 36 -48 61q-44 46 -44 107 q0 78 41 125q77 91 164 108q29 6 73 6q130 0 176 -138q64 -192 98 -192h35v-184h-35q-127 0 -194 172q-64 165 -94 165q-34 -1 -50 -17q-20 -18 -20 -50q0 -3 42 -72q53 -87 53 -147q0 -83 -78 -166q-104 -111 -285 -137q-140 -20 -216 -20q-121 0 -268 36q-228 56 -240 254 q-6 92 30 230h178q-26 -80 -26 -196q1 -106 142 -132q69 -13 182 -13q130 0 188 17q128 37 148 52q60 46 59 75z" />
<glyph unicode="&#x626;" arabic-form="initial" d="M0 0zM423 815zM423 915l78 18q-44 20 -60 56q-17 37 -16 82q2 95 56 139q56 46 150 45q61 -1 114 -33v-100q-51 33 -114 33q-66 0 -83 -18q-29 -32 -29 -58q0 -77 94 -104q33 -10 153 19v-102l-343 -77v100zM608 86q-72 -86 -415 -86h-213v184h158q285 0 329 44 q49 49 49 155v217h184v-217q0 -187 -92 -297z" />
<glyph unicode="&#x626;" arabic-form="medial" d="M0 0zM445 815zM445 915l78 18q-44 20 -60 56q-17 37 -16 82q2 95 56 139q56 46 150 45q61 -1 114 -33v-100q-51 33 -114 33q-66 0 -83 -18q-29 -32 -29 -58q0 -77 94 -104q33 -10 153 19v-102l-343 -77v100zM606 86q-76 -86 -291 -86h-335v184h280q162 0 206 44 q48 49 48 155v217h184v-217q0 -106 50 -155q44 -44 207 -44h298v-184h-353q-214 0 -294 86z" />
<glyph unicode="&#x627;" arabic-form="isolated" d="M524 0zM524 1556h184v-1556h-184v1556z" />
<glyph unicode="&#x627;" arabic-form="final" d="M588 371v1185h184v-1173q0 -106 50 -155q44 -44 224 -44h208v-184h-264q-234 0 -314 92q-88 101 -88 279z" />
<glyph unicode="&#x628;" arabic-form="isolated" d="M1174 539q26 -71 26 -203q0 -123 -166 -244q-152 -111 -431 -112q-223 -1 -377 56q-157 59 -157 284q0 62 41 186h184q-43 -138 -43 -186q0 -108 117 -138q98 -25 230 -25q188 0 294 65q123 76 123 182q0 64 -25 135h184zM539 -200h150v-150h-150v150z" />
<glyph unicode="&#x628;" arabic-form="final" d="M69 0zM465 -200h150v-150h-150v150zM543 -20q-186 0 -317 56q-157 65 -157 284q0 62 41 186h184q-43 -138 -43 -186q0 -108 117 -138q98 -25 225 -25q69 0 199 55q87 37 132 90q55 65 55 121q0 62 -29 117h184q19 -75 19 -165q0 -100 24 -151q19 -40 43 -40h33v-184h-75 q-52 0 -99 44q-43 42 -63 121q-88 -81 -184 -128q-116 -57 -289 -57z" />
<glyph unicode="&#x628;" arabic-form="initial" d="M0 0zM608 86q-72 -86 -415 -86h-213v184h158q285 0 329 44q49 49 49 155v217h184v-217q0 -187 -92 -297zM504 -150h150v-150h-150v150z" />
<glyph unicode="&#x628;" arabic-form="medial" d="M0 0zM606 86q-76 -86 -291 -86h-335v184h280q162 0 206 44q48 49 48 155v217h184v-217q0 -106 50 -155q44 -44 207 -44h298v-184h-353q-214 0 -294 86zM532 -150h150v-150h-150v150z" />
<glyph unicode="&#x629;" arabic-form="isolated" d="M222 0zM526 554q-66 0 -99 -87q-26 -69 -25 -192q1 -82 56 -126q57 -44 114 -44q91 0 184 57q75 46 75 131q0 77 -66 142q-123 120 -239 119zM490 734q198 0 380 -160q141 -124 141 -272q-1 -200 -148 -275q-165 -85 -297 -85q-96 0 -177 35q-167 74 -167 313 q0 181 37 259q84 185 231 185zM612 1050h150v-150h-150v150zM362 1050h150v-150h-150v150z" />
<glyph unicode="&#x629;" arabic-form="final" d="M242 0zM704 1050h150v-150h-150v150zM454 1050h150v-150h-150v150zM773 282q-15 42 -28 91q-13 50 -25 151q-120 -12 -202 -79q-111 -89 -109 -151q1 -41 91 -66t273 54zM706 668q-4 39 -7 82h184q1 -168 37 -342q21 -101 77 -180q31 -44 143 -44h113v-184h-168 q-90 0 -163 51q-45 31 -83 90q-138 -73 -294 -73q-56 0 -114 15q-189 48 -189 202q0 173 204 300q109 68 260 83z" />
<glyph unicode="&#x62a;" arabic-form="isolated" d="M1174 539q26 -71 26 -203q0 -123 -166 -244q-152 -111 -431 -112q-223 -1 -377 56q-157 59 -157 284q0 62 41 186h184q-43 -138 -43 -186q0 -108 117 -138q98 -25 230 -25q188 0 294 65q123 76 123 182q0 64 -25 135h184zM697 800h150v-150h-150v150zM447 800h150v-150 h-150v150z" />
<glyph unicode="&#x62a;" arabic-form="final" d="M69 0zM662 800h150v-150h-150v150zM412 800h150v-150h-150v150zM543 -20q-186 0 -317 56q-157 65 -157 284q0 62 41 186h184q-43 -138 -43 -186q0 -108 117 -138q98 -25 225 -25q69 0 199 55q87 37 132 90q55 65 55 121q0 62 -29 117h184q19 -75 19 -165q0 -100 24 -151 q19 -40 43 -40h33v-184h-75q-52 0 -99 44q-43 42 -63 121q-88 -81 -184 -128q-116 -57 -289 -57z" />
<glyph unicode="&#x62a;" arabic-form="initial" d="M0 0zM653 1000h150v-150h-150v150zM403 1000h150v-150h-150v150zM608 86q-72 -86 -415 -86h-213v184h158q285 0 329 44q49 49 49 155v217h184v-217q0 -187 -92 -297z" />
<glyph unicode="&#x62a;" arabic-form="medial" d="M0 0zM653 1000h150v-150h-150v150zM403 1000h150v-150h-150v150zM606 86q-76 -86 -291 -86h-335v184h280q162 0 206 44q48 49 48 155v217h184v-217q0 -106 50 -155q44 -44 207 -44h298v-184h-353q-214 0 -294 86z" />
<glyph unicode="&#x62b;" arabic-form="isolated" d="M1174 539q26 -71 26 -203q0 -123 -166 -244q-152 -111 -431 -112q-223 -1 -377 56q-157 59 -157 284q0 62 41 186h184q-43 -138 -43 -186q0 -108 117 -138q98 -25 230 -25q188 0 294 65q123 76 123 182q0 64 -25 135h184zM567 1050h150v-150h-150v150zM692 800h150v-150 h-150v150zM442 800h150v-150h-150v150z" />
<glyph unicode="&#x62b;" arabic-form="final" d="M69 0zM549 1050h150v-150h-150v150zM674 800h150v-150h-150v150zM424 800h150v-150h-150v150zM543 -20q-186 0 -317 56q-157 65 -157 284q0 62 41 186h184q-43 -138 -43 -186q0 -108 117 -138q98 -25 225 -25q69 0 199 55q87 37 132 90q55 65 55 121q0 62 -29 117h184 q19 -75 19 -165q0 -100 24 -151q19 -40 43 -40h33v-184h-75q-52 0 -99 44q-43 42 -63 121q-88 -81 -184 -128q-116 -57 -289 -57z" />
<glyph unicode="&#x62b;" arabic-form="initial" d="M0 0zM608 86q-72 -86 -415 -86h-213v184h158q285 0 329 44q49 49 49 155v217h184v-217q0 -187 -92 -297zM537 1250h150v-150h-150v150zM662 1000h150v-150h-150v150zM412 1000h150v-150h-150v150z" />
<glyph unicode="&#x62b;" arabic-form="medial" d="M0 0zM606 86q-76 -86 -291 -86h-335v184h280q162 0 206 44q48 49 48 155v217h184v-217q0 -106 50 -155q44 -44 207 -44h298v-184h-353q-214 0 -294 86zM536 1212h150v-150h-150v150zM661 962h150v-150h-150v150zM411 962h150v-150h-150v150z" />
<glyph unicode="&#x62c;" arabic-form="isolated" d="M88 0zM88 807q276 64 471 63q292 -1 488 -54v-154q-294 13 -509 -167q-224 -188 -224 -435q0 -137 74 -231q129 -163 404 -164q193 0 405 118v-184q-150 -98 -400 -99q-364 -2 -533 194q-131 152 -131 374q0 258 212 481q96 101 233 153q-101 3 -260 -19 q-135 -19 -230 -60v184zM671 175h150v-150h-150v150z" />
<glyph unicode="&#x62c;" arabic-form="final" d="M88 0zM624 100h150v-150h-150v150zM1233 184h40v-184h-49q-129 0 -252 150q-82 100 -143 256q-6 15 -79 193q-114 -24 -212 -104q-224 -183 -224 -435q0 -138 74 -231q129 -163 404 -164q193 0 405 118v-184q-150 -98 -400 -99q-364 -2 -533 194q-131 152 -131 374 q0 258 212 481q96 101 233 153q-101 3 -260 -19q-135 -19 -230 -60v184q276 64 471 63q292 -1 488 -54v-154q-109 -3 -140 -13l29 -91q51 -160 123 -255q90 -119 174 -119z" />
<glyph unicode="&#x62c;" arabic-form="initial" d="M0 0zM525 -150h150v-150h-150v150zM851 541q-83 23 -186 46q-85 19 -265 35q-82 7 -243 1v184q72 7 147 8q162 0 334 -35q258 -52 478 -150v-154q-76 -24 -164 -76q-166 -98 -240 -164q-145 -129 -220 -156q-221 -80 -384 -80h-128v184h100q227 0 356 72q104 58 220 164 q94 86 195 121z" />
<glyph unicode="&#x62c;" arabic-form="medial" d="M0 0zM525 -150h150v-150h-150v150zM638 780q258 -52 478 -150v-154q-65 -20 -138 -61q50 -78 80 -112q104 -119 158 -119h60v-184h-80q-151 0 -275 168q-40 54 -99 151q-69 -46 -110 -83q-145 -129 -220 -156q-221 -80 -384 -80h-128v184h100q227 0 356 72 q104 58 220 164q94 86 195 121q-83 23 -186 46q-85 19 -265 35q-82 7 -243 1v184q72 7 147 8q162 0 334 -35z" />
<glyph unicode="&#x62d;" arabic-form="isolated" d="M88 0zM88 807q276 64 471 63q292 -1 488 -54v-154q-294 13 -509 -167q-224 -188 -224 -435q0 -137 74 -231q129 -163 404 -164q193 0 405 118v-184q-150 -98 -400 -99q-364 -2 -533 194q-131 152 -131 374q0 258 212 481q96 101 233 153q-101 3 -260 -19 q-135 -19 -230 -60v184z" />
<glyph unicode="&#x62d;" arabic-form="final" d="M1233 184h40v-184h-49q-129 0 -252 150q-82 100 -143 256q-6 15 -79 193q-114 -24 -212 -104q-224 -183 -224 -435q0 -138 74 -231q129 -163 404 -164q193 0 405 118v-184q-150 -98 -400 -99q-364 -2 -533 194q-131 152 -131 374q0 258 212 481q96 101 233 153 q-101 3 -260 -19q-135 -19 -230 -60v184q276 64 471 63q292 -1 488 -54v-154q-109 -3 -140 -13l29 -91q51 -160 123 -255q90 -119 174 -119z" />
<glyph unicode="&#x62d;" arabic-form="initial" d="M851 541q-83 23 -186 46q-85 19 -265 35q-82 7 -243 1v184q72 7 147 8q162 0 334 -35q258 -52 478 -150v-154q-76 -24 -164 -76q-166 -98 -240 -164q-145 -129 -220 -156q-221 -80 -384 -80h-128v184h100q227 0 356 72q104 58 220 164q94 86 195 121z" />
<glyph unicode="&#x62d;" arabic-form="medial" d="M638 780q258 -52 478 -150v-154q-65 -20 -138 -61q50 -78 80 -112q104 -119 158 -119h60v-184h-80q-151 0 -275 168q-40 54 -99 151q-69 -46 -110 -83q-145 -129 -220 -156q-221 -80 -384 -80h-128v184h100q227 0 356 72q104 58 220 164q94 86 195 121q-83 23 -186 46 q-85 19 -265 35q-82 7 -243 1v184q72 7 147 8q162 0 334 -35z" />
<glyph unicode="&#x62e;" arabic-form="isolated" d="M88 0zM88 807q276 64 471 63q292 -1 488 -54v-154q-294 13 -509 -167q-224 -188 -224 -435q0 -137 74 -231q129 -163 404 -164q193 0 405 118v-184q-150 -98 -400 -99q-364 -2 -533 194q-131 152 -131 374q0 258 212 481q96 101 233 153q-101 3 -260 -19 q-135 -19 -230 -60v184zM476 1200h150v-150h-150v150z" />
<glyph unicode="&#x62e;" arabic-form="final" d="M88 0zM472 1200h150v-150h-150v150zM1233 184h40v-184h-49q-129 0 -252 150q-82 100 -143 256q-6 15 -79 193q-114 -24 -212 -104q-224 -183 -224 -435q0 -138 74 -231q129 -163 404 -164q193 0 405 118v-184q-150 -98 -400 -99q-364 -2 -533 194q-131 152 -131 374 q0 258 212 481q96 101 233 153q-101 3 -260 -19q-135 -19 -230 -60v184q276 64 471 63q292 -1 488 -54v-154q-109 -3 -140 -13l29 -91q51 -160 123 -255q90 -119 174 -119z" />
<glyph unicode="&#x62e;" arabic-form="initial" d="M0 0zM525 1100h150v-150h-150v150zM851 541q-83 23 -186 46q-85 19 -265 35q-82 7 -243 1v184q72 7 147 8q162 0 334 -35q258 -52 478 -150v-154q-76 -24 -164 -76q-166 -98 -240 -164q-145 -129 -220 -156q-221 -80 -384 -80h-128v184h100q227 0 356 72q104 58 220 164 q94 86 195 121z" />
<glyph unicode="&#x62e;" arabic-form="medial" d="M0 0zM525 1100h150v-150h-150v150zM638 780q258 -52 478 -150v-154q-65 -20 -138 -61q50 -78 80 -112q104 -119 158 -119h60v-184h-80q-151 0 -275 168q-40 54 -99 151q-69 -46 -110 -83q-145 -129 -220 -156q-221 -80 -384 -80h-128v184h100q227 0 356 72 q104 58 220 164q94 86 195 121q-83 23 -186 46q-85 19 -265 35q-82 7 -243 1v184q72 7 147 8q162 0 334 -35z" />
<glyph unicode="&#x62f;" arabic-form="isolated" d="M232 0zM596 151q174 50 207 161q8 27 8 69q0 91 -60 194q-73 120 -239 299h227q107 -108 179 -239q82 -152 82 -257q0 -99 -32 -174q-80 -195 -342 -235q-46 -7 -140 -7q-151 0 -254 38v184q115 -42 248 -42q82 0 116 9z" />
<glyph unicode="&#x62f;" arabic-form="final" d="M1000 378q0 108 -82 257q-72 131 -179 239h-227q170 -184 239 -299q60 -101 60 -194q0 -42 -8 -69q-34 -115 -207 -161q-34 -9 -116 -9q-133 0 -248 42v-184q103 -38 254 -38q94 0 140 7q206 31 300 161q97 -130 244 -130h83v184h-28q-99 0 -143 44q-82 82 -82 150z" />
<glyph unicode="&#x630;" arabic-form="isolated" d="M232 0zM596 151q174 50 207 161q8 27 8 69q0 91 -60 194q-73 120 -239 299h227q107 -108 179 -239q82 -152 82 -257q0 -99 -32 -174q-80 -195 -342 -235q-46 -7 -140 -7q-151 0 -254 38v184q115 -42 248 -42q82 0 116 9zM524 1200h150v-150h-150v150z" />
<glyph unicode="&#x630;" arabic-form="final" d="M232 0zM533 1200h150v-150h-150v150zM1000 378q0 108 -82 257q-72 131 -179 239h-227q170 -184 239 -299q60 -101 60 -194q0 -42 -8 -69q-34 -115 -207 -161q-34 -9 -116 -9q-133 0 -248 42v-184q103 -38 254 -38q94 0 140 7q206 31 300 161q97 -130 244 -130h83v184h-28 q-99 0 -143 44q-82 82 -82 150z" />
<glyph unicode="&#x631;" arabic-form="isolated" d="M0 0zM901 154q10 58 10 130q0 126 -53 262h184q50 -118 50 -250q0 -82 -8 -144q-41 -331 -372 -504q-273 -143 -764 -152v184q444 0 664 128q255 146 289 346z" />
<glyph unicode="&#x631;" arabic-form="final" d="M750 550h184q30 -112 33 -142q10 -103 83 -180q42 -44 143 -44h60v-184h-115q-130 0 -180 62q-57 -253 -354 -411q-284 -151 -764 -151v184q445 0 664 128q255 149 289 346q10 58 10 130q0 126 -53 262z" />
<glyph unicode="&#x632;" arabic-form="isolated" d="M0 0zM901 154q10 58 10 130q0 126 -53 262h184q50 -118 50 -250q0 -82 -8 -144q-41 -331 -372 -504q-273 -143 -764 -152v184q444 0 664 128q255 146 289 346zM861 950h150v-150h-150v150z" />
<glyph unicode="&#x632;" arabic-form="final" d="M0 0zM751 950h150v-150h-150v150zM750 550h184q30 -112 33 -142q10 -103 83 -180q42 -44 143 -44h60v-184h-115q-130 0 -180 62q-57 -253 -354 -411q-284 -151 -764 -151v184q445 0 664 128q255 149 289 346q10 58 10 130q0 126 -53 262z" />
<glyph unicode="&#x633;" arabic-form="isolated" d="M0 0zM396 60q-9 -168 -38 -262q-38 -121 -98 -198q-71 -92 -185 -92q-95 0 -196 100q-117 115 -99 328q19 232 80 362h164q-88 -225 -82 -362q7 -172 40 -215q47 -59 94 -59q54 0 104 72q34 50 60 172q24 109 22 274q0 94 -16 186l-42 234h160l18 -156q16 -145 38 -180 q48 -80 88 -83q46 -3 92 122q36 103 36 297h164q-4 -163 34 -304q31 -120 74 -120q104 0 104 280v294h164v-342q0 -159 -62 -312q-33 -82 -118 -116q-22 -9 -100 -9q-66 0 -90 25q-65 67 -90 193q-31 -109 -100 -165q-51 -40 -124 -42q-48 -2 -96 78z" />
<glyph unicode="&#x633;" arabic-form="final" d="M820 -29q-65 0 -90 25q-64 67 -90 193q-31 -109 -100 -165q-50 -40 -124 -42q-47 -2 -96 78q-8 -168 -38 -262q-37 -121 -98 -198q-71 -92 -184 -92q-95 0 -196 100q-118 115 -100 328q20 232 80 362h164q-87 -225 -82 -362q8 -172 41 -215q46 -59 94 -59q53 0 103 72 q35 50 61 172q24 109 22 274q-1 94 -17 186l-41 234h159l18 -156q17 -145 38 -180q49 -80 88 -83q47 -3 92 122q37 103 37 297h164q-4 -163 33 -304q32 -120 74 -120q105 0 105 280v294h164v-342q0 -139 41 -180q44 -44 103 -44h8v-184h-63q-100 0 -160 96 q-31 -97 -102 -116q-33 -9 -108 -9z" />
<glyph unicode="&#x633;" arabic-form="initial" d="M486 181q-71 0 -92 84q-26 100 -26 179v156h-164v-192q0 -118 -70 -189q-36 -35 -112 -35h-42v-184h70q101 0 160 37q69 44 90 101q12 -63 56 -98q81 -64 131 -64q73 0 124 42q70 56 101 165q25 -126 90 -193q24 -25 90 -25q78 0 100 9q85 34 118 116q62 153 62 312v342 h-164v-294q0 -280 -104 -280q-43 0 -74 120q-38 141 -33 304h-165q0 -194 -37 -297q-42 -116 -109 -116z" />
<glyph unicode="&#x633;" arabic-form="medial" d="M721 594q0 -166 33 -304q29 -120 82 -120q100 0 100 280v294h164v-342q0 -139 42 -180q44 -44 78 -44h34v-184h-64q-101 0 -160 96q-54 -88 -112 -115q-22 -10 -94 -10q-79 0 -134 73q-42 54 -54 145q-30 -109 -100 -165q-51 -42 -104 -42q-67 0 -104 54q-38 55 -62 108 q-20 -57 -90 -101q-58 -37 -126 -37h-70v184h42q55 0 86 35q64 71 64 189v192h162v-156q0 -79 26 -179q22 -84 70 -84t90 116q37 103 37 297h164z" />
<glyph unicode="&#x634;" arabic-form="isolated" d="M0 0zM396 60q-9 -168 -38 -262q-38 -121 -98 -198q-71 -92 -185 -92q-95 0 -196 100q-117 115 -99 328q19 232 80 362h164q-88 -225 -82 -362q7 -172 40 -215q47 -59 94 -59q54 0 104 72q34 50 60 172q24 109 22 274q0 94 -16 186l-42 234h160l18 -156q16 -145 38 -180 q48 -80 88 -83q46 -3 92 122q36 103 36 297h164q-4 -163 34 -304q31 -120 74 -120q104 0 104 280v294h164v-342q0 -159 -62 -312q-33 -82 -118 -116q-22 -9 -100 -9q-66 0 -90 25q-65 67 -90 193q-31 -109 -100 -165q-51 -40 -124 -42q-48 -2 -96 78zM435 1200h150v-150 h-150v150zM560 950h150v-150h-150v150zM310 950h150v-150h-150v150z" />
<glyph unicode="&#x634;" arabic-form="final" d="M0 0zM361 1200h150v-150h-150v150zM486 950h150v-150h-150v150zM236 950h150v-150h-150v150zM820 -29q-65 0 -90 25q-64 67 -90 193q-31 -109 -100 -165q-50 -40 -124 -42q-47 -2 -96 78q-8 -168 -38 -262q-37 -121 -98 -198q-71 -92 -184 -92q-95 0 -196 100 q-118 115 -100 328q20 232 80 362h164q-87 -225 -82 -362q8 -172 41 -215q46 -59 94 -59q53 0 103 72q35 50 61 172q24 109 22 274q-1 94 -17 186l-41 234h159l18 -156q17 -145 38 -180q49 -80 88 -83q47 -3 92 122q37 103 37 297h164q-4 -163 33 -304q32 -120 74 -120 q105 0 105 280v294h164v-342q0 -139 41 -180q44 -44 103 -44h8v-184h-63q-100 0 -160 96q-31 -97 -102 -116q-33 -9 -108 -9z" />
<glyph unicode="&#x634;" arabic-form="initial" d="M0 0zM531 1200h150v-150h-150v150zM656 950h150v-150h-150v150zM406 950h150v-150h-150v150zM486 181q-71 0 -92 84q-26 100 -26 179v156h-164v-192q0 -118 -70 -189q-36 -35 -112 -35h-42v-184h70q101 0 160 37q69 44 90 101q12 -63 56 -98q81 -64 131 -64q73 0 124 42 q70 56 101 165q25 -126 90 -193q24 -25 90 -25q78 0 100 9q85 34 118 116q62 153 62 312v342h-164v-294q0 -280 -104 -280q-43 0 -74 120q-38 141 -33 304h-165q0 -194 -37 -297q-42 -116 -109 -116z" />
<glyph unicode="&#x634;" arabic-form="medial" d="M0 0zM463 1200h150v-150h-150v150zM588 950h150v-150h-150v150zM338 950h150v-150h-150v150zM721 594q0 -166 33 -304q29 -120 82 -120q100 0 100 280v294h164v-342q0 -139 42 -180q44 -44 78 -44h34v-184h-64q-101 0 -160 96q-54 -88 -112 -115q-22 -10 -94 -10 q-79 0 -134 73q-42 54 -54 145q-30 -109 -100 -165q-51 -42 -104 -42q-67 0 -104 54q-38 55 -62 108q-20 -57 -90 -101q-58 -37 -126 -37h-70v184h42q55 0 86 35q64 71 64 189v192h162v-156q0 -79 26 -179q22 -84 70 -84t90 116q37 103 37 297h164z" />
<glyph unicode="&#x635;" arabic-form="isolated" d="M0 0zM584 184h128q141 0 214 46q106 68 106 138q0 45 -40 82q-36 33 -100 33q-71 0 -174 -109q-76 -78 -134 -190zM446 290q75 128 124 188q142 177 296 177q172 0 262 -82q88 -78 88 -199q0 -190 -184 -299q-127 -75 -254 -75h-218q-37 0 -90 30q-44 26 -44 42 q0 -175 -48 -306q-46 -129 -97 -172q-99 -86 -176 -86q-130 0 -221 90q-124 127 -124 330q0 188 100 360h172q-104 -204 -104 -360q0 -145 60 -195q50 -41 111 -38q66 4 103 63q65 106 65 242q0 104 -9 166q-33 212 -46 284h170q0 -15 14 -70q10 -40 50 -90z" />
<glyph unicode="&#x635;" arabic-form="final" d="M509 184h129q140 0 213 46q106 68 106 138q0 45 -40 82q-36 33 -99 33q-71 0 -175 -109q-75 -78 -134 -190zM1141 374q0 -52 -31 -123q16 -10 30 -23q46 -44 74 -44h39v-184h-59q-52 0 -154 94l-28 26q-172 -120 -308 -120h-218q-38 0 -90 30q-45 26 -45 42 q0 -175 -47 -306q-47 -129 -98 -172q-102 -86 -176 -86q-130 0 -220 90q-125 125 -125 330q0 188 101 360h172q-104 -204 -104 -360q0 -145 60 -195q50 -41 110 -38q67 4 104 63q64 103 64 242q0 104 -9 166q-33 212 -46 284h171q-1 -15 13 -70q10 -40 50 -90 q76 128 125 188q146 177 296 177q171 0 262 -82q87 -78 87 -199z" />
<glyph unicode="&#x635;" arabic-form="initial" d="M585 184h129q140 0 213 46q106 68 106 138q0 45 -40 82q-36 33 -99 33q-71 0 -175 -109q-75 -78 -134 -190zM562 0q-74 0 -152 42q-65 35 -104 96q-102 -138 -196 -138h-130v184h75q43 0 80 44q65 80 65 180v114h184v-78q0 -24 9 -64t54 -90q76 128 125 188 q146 177 296 177q171 0 262 -82q87 -78 87 -199q0 -190 -184 -299q-126 -75 -253 -75h-218z" />
<glyph unicode="&#x635;" arabic-form="medial" d="M509 184h129q140 0 213 46q106 68 106 138q0 45 -40 82q-36 33 -99 33q-71 0 -175 -109q-75 -78 -134 -190zM486 0q-74 0 -152 42q-65 35 -104 96q-102 -138 -170 -138h-80v184h26q31 0 73 46q45 50 45 178v114h184v-78q0 -24 9 -64t54 -90q76 128 125 188 q146 177 296 177q171 0 262 -82q87 -78 87 -199q0 -52 -31 -123q16 -10 30 -23q46 -44 74 -44h39v-184h-59q-52 0 -154 94l-28 26q-172 -120 -308 -120h-218z" />
<glyph unicode="&#x636;" arabic-form="isolated" d="M0 0zM584 184h128q141 0 214 46q106 68 106 138q0 45 -40 82q-36 33 -100 33q-71 0 -174 -109q-76 -78 -134 -190zM446 290q75 128 124 188q142 177 296 177q172 0 262 -82q88 -78 88 -199q0 -190 -184 -299q-127 -75 -254 -75h-218q-37 0 -90 30q-44 26 -44 42 q0 -175 -48 -306q-46 -129 -97 -172q-99 -86 -176 -86q-130 0 -221 90q-124 127 -124 330q0 188 100 360h172q-104 -204 -104 -360q0 -145 60 -195q50 -41 111 -38q66 4 103 63q65 106 65 242q0 104 -9 166q-33 212 -46 284h170q0 -15 14 -70q10 -40 50 -90zM335 820h150 v-150h-150v150z" />
<glyph unicode="&#x636;" arabic-form="final" d="M0 0zM260 820h150v-150h-150v150zM509 184h129q140 0 213 46q106 68 106 138q0 45 -40 82q-36 33 -99 33q-71 0 -175 -109q-75 -78 -134 -190zM1141 374q0 -52 -31 -123q16 -10 30 -23q46 -44 74 -44h39v-184h-59q-52 0 -154 94l-28 26q-172 -120 -308 -120h-218 q-38 0 -90 30q-45 26 -45 42q0 -175 -47 -306q-47 -129 -98 -172q-102 -86 -176 -86q-130 0 -220 90q-125 125 -125 330q0 188 101 360h172q-104 -204 -104 -360q0 -145 60 -195q50 -41 110 -38q67 4 104 63q64 103 64 242q0 104 -9 166q-33 212 -46 284h171q-1 -15 13 -70 q10 -40 50 -90q76 128 125 188q146 177 296 177q171 0 262 -82q87 -78 87 -199z" />
<glyph unicode="&#x636;" arabic-form="initial" d="M0 0zM343 886h150v-150h-150v150zM585 184h129q140 0 213 46q106 68 106 138q0 45 -40 82q-36 33 -99 33q-71 0 -175 -109q-75 -78 -134 -190zM562 0q-74 0 -152 42q-65 35 -104 96q-102 -138 -196 -138h-130v184h75q43 0 80 44q65 80 65 180v114h184v-78q0 -24 9 -64 t54 -90q76 128 125 188q146 177 296 177q171 0 262 -82q87 -78 87 -199q0 -190 -184 -299q-126 -75 -253 -75h-218z" />
<glyph unicode="&#x636;" arabic-form="medial" d="M0 0zM308 872h150v-150h-150v150zM509 184h129q140 0 213 46q106 68 106 138q0 45 -40 82q-36 33 -99 33q-71 0 -175 -109q-75 -78 -134 -190zM486 0q-74 0 -152 42q-65 35 -104 96q-102 -138 -170 -138h-80v184h26q31 0 73 46q45 50 45 178v114h184v-78q0 -24 9 -64 t54 -90q76 128 125 188q146 177 296 177q171 0 262 -82q87 -78 87 -199q0 -52 -31 -123q16 -10 30 -23q46 -44 74 -44h39v-184h-59q-52 0 -154 94l-28 26q-172 -120 -308 -120h-218z" />
<glyph unicode="&#x637;" arabic-form="isolated" d="M10 0zM556 184h129q140 0 213 46q106 68 106 138q0 45 -40 82q-36 33 -99 33q-71 0 -175 -109q-75 -78 -134 -190zM751 0h-517h-224v184h224v1372h184v-1266q76 128 125 188q142 177 296 177q171 0 262 -82q87 -78 87 -199q0 -190 -184 -299q-126 -75 -253 -75z" />
<glyph unicode="&#x637;" arabic-form="final" d="M520 184h129q140 0 213 46q106 68 106 138q0 45 -40 82q-36 33 -99 33q-71 0 -175 -109q-75 -78 -134 -190zM1152 374q0 -53 -42 -123q61 -67 98 -67h45v-184h-58q-93 0 -178 79l-28 26q-125 -105 -274 -105h-517h-178v184h178v1372h184v-1266q76 128 125 188 q146 177 296 177q171 0 262 -82q87 -78 87 -199z" />
<glyph unicode="&#x637;" arabic-form="initial" d="M556 184h129q140 0 213 46q106 68 106 138q0 45 -40 82q-36 33 -99 33q-71 0 -175 -109q-75 -78 -134 -190zM751 0h-517h-254v184h254v1372h184v-1266q76 128 125 188q142 177 296 177q171 0 262 -82q87 -78 87 -199q0 -190 -184 -299q-126 -75 -253 -75z" />
<glyph unicode="&#x637;" arabic-form="medial" d="M520 184h129q140 0 213 46q106 68 106 138q0 45 -40 82q-36 33 -99 33q-71 0 -175 -109q-75 -78 -134 -190zM1152 374q0 -53 -42 -123q61 -67 98 -67h45v-184h-58q-93 0 -178 79l-28 26q-125 -105 -274 -105h-517h-218v184h218v1372h184v-1266q76 128 125 188 q146 177 296 177q171 0 262 -82q87 -78 87 -199z" />
<glyph unicode="&#x638;" arabic-form="isolated" d="M10 0zM556 184h129q140 0 213 46q106 68 106 138q0 45 -40 82q-36 33 -99 33q-71 0 -175 -109q-75 -78 -134 -190zM751 0h-517h-224v184h224v1372h184v-1266q76 128 125 188q142 177 296 177q171 0 262 -82q87 -78 87 -199q0 -190 -184 -299q-126 -75 -253 -75zM579 918 h150v-150h-150v150z" />
<glyph unicode="&#x638;" arabic-form="final" d="M20 0zM579 918h150v-150h-150v150zM520 184h129q140 0 213 46q106 68 106 138q0 45 -40 82q-36 33 -99 33q-71 0 -175 -109q-75 -78 -134 -190zM1152 374q0 -53 -42 -123q61 -67 98 -67h45v-184h-58q-93 0 -178 79l-28 26q-125 -105 -274 -105h-517h-178v184h178v1372 h184v-1266q76 128 125 188q146 177 296 177q171 0 262 -82q87 -78 87 -199z" />
<glyph unicode="&#x638;" arabic-form="initial" d="M0 0zM579 918h150v-150h-150v150zM556 184h129q140 0 213 46q106 68 106 138q0 45 -40 82q-36 33 -99 33q-71 0 -175 -109q-75 -78 -134 -190zM751 0h-517h-254v184h254v1372h184v-1266q76 128 125 188q142 177 296 177q171 0 262 -82q87 -78 87 -199q0 -190 -184 -299 q-126 -75 -253 -75z" />
<glyph unicode="&#x638;" arabic-form="medial" d="M0 0zM579 918h150v-150h-150v150zM520 184h129q140 0 213 46q106 68 106 138q0 45 -40 82q-36 33 -99 33q-71 0 -175 -109q-75 -78 -134 -190zM1152 374q0 -53 -42 -123q61 -67 98 -67h45v-184h-58q-93 0 -178 79l-28 26q-125 -105 -274 -105h-517h-218v184h218v1372h184 v-1266q76 128 125 188q146 177 296 177q171 0 262 -82q87 -78 87 -199z" />
<glyph unicode="&#x639;" arabic-form="isolated" d="M122 0zM344 -177q119 -158 458 -158q193 0 405 118v-184q-150 -99 -400 -99q-421 0 -587 188q-98 111 -98 312q0 177 87 278q113 131 190 156q-51 4 -98 34q-88 56 -88 186q0 208 204 335q124 77 376 77v-169q-195 0 -311 -65q-93 -52 -93 -156q0 -75 48 -100 q45 -24 91 -24q40 0 81 18q158 69 412 98v-184q-273 -26 -509 -175q-209 -131 -209 -316q0 -117 41 -170z" />
<glyph unicode="&#x639;" arabic-form="final" d="M148 0q0 212 187 352q-61 50 -99 122q-30 57 -30 84q0 31 13 72q16 55 120 107q89 45 208 45t208 -45q101 -51 120 -107q13 -38 13 -72q0 -62 -69 -118q-118 -96 -173 -115q68 -64 155 -101q95 -40 243 -40h224v-184h-208q-329 0 -577 228q-154 -129 -154 -235 q0 -109 41 -170q107 -158 458 -158q193 0 405 118v-184q-150 -98 -400 -99q-430 -2 -587 188q-98 119 -98 312zM547 597q-26 0 -56 -7q-47 -12 -47 -44q0 -36 70 -101q134 55 136 101q1 32 -47 44q-30 7 -56 7z" />
<glyph unicode="&#x639;" arabic-form="initial" d="M61 184q161 0 363 93q-75 24 -127 83q-88 100 -88 240q0 264 204 389q125 77 376 77v-169q-218 0 -311 -68.5t-93 -196t62 -179.5q83 -70 153 -70q56 0 129 33l288 129v-184l-420 -197q-350 -164 -528 -164h-89v184h81z" />
<glyph unicode="&#x639;" arabic-form="medial" d="M616 185q-194 -185 -396 -185h-240v184h218q107 0 173 40q59 36 99 75q-97 85 -165 175q-30 39 -30 84q0 31 13 72q16 55 120 107q89 45 208 45t208 -45q102 -51 120 -107q13 -41 13 -72q0 -45 -30 -84q-77 -98 -165 -175q31 -31 99 -75q61 -40 173 -40h219v-184h-241 q-202 0 -396 185zM616 597q-26 0 -56 -7q-47 -12 -47 -44q0 -29 103 -124q103 95 103 124q0 32 -47 44q-30 7 -56 7z" />
<glyph unicode="&#x63a;" arabic-form="isolated" d="M122 0zM344 -177q119 -158 458 -158q193 0 405 118v-184q-150 -99 -400 -99q-421 0 -587 188q-98 111 -98 312q0 177 87 278q113 131 190 156q-51 4 -98 34q-88 56 -88 186q0 208 204 335q124 77 376 77v-169q-195 0 -311 -65q-93 -52 -93 -156q0 -75 48 -100 q45 -24 91 -24q40 0 81 18q158 69 412 98v-184q-273 -26 -509 -175q-209 -131 -209 -316q0 -117 41 -170zM375 1350h150v-150h-150v150z" />
<glyph unicode="&#x63a;" arabic-form="final" d="M148 0zM470 1100h150v-150h-150v150zM148 0q0 212 187 352q-61 50 -99 122q-30 57 -30 84q0 31 13 72q16 55 120 107q89 45 208 45t208 -45q101 -51 120 -107q13 -38 13 -72q0 -62 -69 -118q-118 -96 -173 -115q68 -64 155 -101q95 -40 243 -40h224v-184h-208 q-329 0 -577 228q-154 -129 -154 -235q0 -109 41 -170q107 -158 458 -158q193 0 405 118v-184q-150 -98 -400 -99q-430 -2 -587 188q-98 119 -98 312zM547 597q-26 0 -56 -7q-47 -12 -47 -44q0 -36 70 -101q134 55 136 101q1 32 -47 44q-30 7 -56 7z" />
<glyph unicode="&#x63a;" arabic-form="initial" d="M0 0zM375 1350h150v-150h-150v150zM61 184q161 0 363 93q-75 24 -127 83q-88 100 -88 240q0 264 204 389q125 77 376 77v-169q-218 0 -311 -68.5t-93 -196t62 -179.5q83 -70 153 -70q56 0 129 33l288 129v-184l-420 -197q-350 -164 -528 -164h-89v184h81z" />
<glyph unicode="&#x63a;" arabic-form="medial" d="M0 0zM539 1100h150v-150h-150v150zM616 185q-194 -185 -396 -185h-240v184h218q107 0 173 40q59 36 99 75q-97 85 -165 175q-30 39 -30 84q0 31 13 72q16 55 120 107q89 45 208 45t208 -45q102 -51 120 -107q13 -41 13 -72q0 -45 -30 -84q-77 -98 -165 -175 q31 -31 99 -75q61 -40 173 -40h219v-184h-241q-202 0 -396 185zM616 597q-26 0 -56 -7q-47 -12 -47 -44q0 -29 103 -124q103 95 103 124q0 32 -47 44q-30 7 -56 7z" />
<glyph unicode="&#x641;" arabic-form="isolated" d="M931 440q41 44 41 120q0 57 -66 110q-31 26 -75 24q-52 0 -92 -42t-41 -92q0 -82 55 -118q38 -26 82 -26q72 0 96 24zM1064 70q-105 -84 -272 -122q-178 -40 -343 -40q-163 0 -277 41q-244 88 -246 365q-2 138 34 230h184q-36 -94 -36 -230q0 -147 120 -192 q90 -34 221 -34q127 0 211 22q188 50 236 78q65 40 103 144q-63 -76 -185 -76q-133 0 -208 68q-98 86 -98 216q0 44 8 96q23 148 173 216q78 36 154 36q90 0 156 -50q96 -72 142 -174q23 -51 23 -190q0 -325 -100 -404zM752 1216h150v-150h-150v150z" />
<glyph unicode="&#x641;" arabic-form="final" d="M0 0zM758 1100h150v-150h-150v150zM883 36q-61 -33 -179 -69q-182 -56 -306 -58q-139 -2 -252 38q-294 103 -296 367q0 138 64 230h184q-66 -94 -66 -230q0 -125 170 -194q71 -29 202 -29q112 0 263 58q-34 27 -63 71q-82 124 -82 232q0 39 4 67q22 155 210 230 q58 23 110 23q82 0 163 -50q139 -84 155 -233q4 -37 4 -67q0 -131 -80 -237q9 -1 16 -1h149v-184h-154q-105 0 -216 36zM883 223q104 65 104 174q0 20 -5 47q-14 71 -66 110q-34 25 -74 25q-24 0 -46 -10q-61 -25 -80 -85q-6 -19 -6 -37q0 -43 41 -109q49 -78 132 -115z" />
<glyph unicode="&#x641;" arabic-form="initial" d="M0 0zM425 1300h150v-150h-150v150zM598 537q41 43 41 120q0 59 -66 110q-31 25 -75 24q-52 -1 -92 -43q-40 -41 -41 -92q0 -80 55 -118q40 -25 82 -25q72 0 96 24zM-20 184h241q84 0 235 23q79 12 139 105q31 48 46 98q-63 -55 -160 -57q-130 -2 -208 67q-98 87 -98 216 q0 52 8 96q23 148 173 217q78 36 154 36q90 0 156 -50q96 -72 142 -174q23 -51 23 -191q0 -208 -78 -351q-74 -136 -198 -180q-109 -39 -254 -39h-321v184z" />
<glyph unicode="&#x641;" arabic-form="medial" d="M0 0zM546 1150h150v-150h-150v150zM712 762q183 -80 208 -230q8 -50 8 -92q0 -73 -22 -122q-28 -67 -64 -117q38 -17 186 -17h225v-184h-315q-136 0 -322 57q-184 -57 -320 -57h-316v184h226q146 0 186 17q-30 40 -66 117q-20 46 -20 122q0 44 8 92q23 143 208 230 q30 14 94 14t96 -14zM616 592q-14 0 -32 -10q-56 -32 -80 -85q-10 -21 -10 -50q0 -43 24 -96q30 -68 98 -90q64 21 100 90q24 50 24 96q0 24 -10 50q-24 52 -80 85q-20 10 -34 10z" />
<glyph unicode="&#x642;" arabic-form="isolated" d="M897 537q41 43 41 120q0 59 -66 110q-31 25 -75 24q-52 -1 -92 -43q-40 -41 -41 -92q0 -80 55 -118q40 -25 82 -25q72 0 96 24zM452 -196q212 2 310 104q203 212 203 520q-63 -75 -185 -75q-133 0 -208 67q-98 87 -98 216q0 45 8 96q23 148 173 217q78 36 154 36 q99 0 156 -50q103 -90 142 -209q33 -102 33 -262q0 -252 -46 -394q-57 -179 -222 -310q-187 -148 -420 -147q-206 1 -344 192q-77 106 -77 231q0 180 82 396h183q-86 -187 -88 -340q0 -72 18 -112q86 -176 226 -176zM855 1300h150v-150h-150v150zM605 1300h150v-150h-150 v150z" />
<glyph unicode="&#x642;" arabic-form="final" d="M0 0zM840 1025h150v-150h-150v150zM590 1025h150v-150h-150v150zM908 10q-66 5 -112 18q-121 35 -178 78q-147 109 -147 294q0 61 6 87q40 165 187 234q41 19 128 19q112 0 168 -50q99 -88 149 -233q20 -58 26 -272q26 -1 30 -1h88v-184h-93h-48q-30 -83 -106 -192 q-104 -149 -246 -223q-151 -78 -315 -77q-301 2 -395 192q-69 138 -69 263q0 166 62 262h184q-62 -107 -62 -262q0 -73 27 -134q58 -130 253 -130q108 0 225 60q158 81 238 251zM951 203q4 122 -18 209q-19 75 -66 110q-34 25 -73 25q-34 0 -55 -10q-53 -28 -72 -85 q-10 -30 -10 -55q0 -60 57 -104q76 -59 176 -79q47 -9 61 -11z" />
<glyph unicode="&#x642;" arabic-form="initial" d="M0 0zM598 537q41 43 41 120q0 59 -66 110q-31 25 -75 24q-52 -1 -92 -43q-40 -41 -41 -92q0 -80 55 -118q40 -25 82 -25q72 0 96 24zM-20 184h241q84 0 235 23q79 12 139 105q31 48 46 98q-63 -55 -160 -57q-130 -2 -208 67q-98 87 -98 216q0 52 8 96q23 148 173 217 q78 36 154 36q90 0 156 -50q96 -72 142 -174q23 -51 23 -191q0 -208 -78 -351q-74 -136 -198 -180q-109 -39 -254 -39h-321v184zM550 1300h150v-150h-150v150zM300 1300h150v-150h-150v150z" />
<glyph unicode="&#x642;" arabic-form="medial" d="M0 0zM712 762q183 -80 208 -230q8 -50 8 -92q0 -73 -22 -122q-28 -67 -64 -117q38 -17 186 -17h225v-184h-315q-136 0 -322 57q-184 -57 -320 -57h-316v184h226q146 0 186 17q-30 40 -66 117q-20 46 -20 122q0 44 8 92q23 143 208 230q30 14 94 14t96 -14zM616 592 q-14 0 -32 -10q-56 -32 -80 -85q-10 -21 -10 -50q0 -43 24 -96q30 -68 98 -90q64 21 100 90q24 50 24 96q0 24 -10 50q-24 52 -80 85q-20 10 -34 10zM656 1150h150v-150h-150v150zM406 1150h150v-150h-150v150z" />
<glyph unicode="&#x643;" arabic-form="isolated" d="M8 0zM635 1100v-82q-74 -4 -112 -18q-80 -30 -80 -63q0 -28 14 -46q12 -16 80 -26q102 -15 102 -103q0 -110 -88 -152q-82 -39 -160 -39q-66 0 -122 11v88q68 -10 113 -10q60 0 117 26q60 26 60 56q0 38 -78 55q-74 16 -92 44q-32 47 -31 93q2 81 77 119q85 43 200 47z M947 281q52 56 52 330v945h184v-945q0 -358 -86 -450q-130 -136 -197 -161q-155 -55 -339 -55q-173 -2 -336 55q-217 76 -217 260q0 75 16 128h184q-14 -58 -14 -102q2 -93 154 -138q121 -35 208 -35q127 0 189 27q119 52 202 141z" />
<glyph unicode="&#x643;" arabic-form="final" d="M532 1100v-82q-74 -4 -112 -18q-80 -30 -80 -63q0 -28 14 -46q12 -16 80 -26q102 -15 102 -103q0 -110 -88 -152q-82 -39 -160 -39q-66 0 -122 11v88q68 -10 113 -10q60 0 117 26q60 26 60 56q0 38 -78 55q-74 16 -92 44q-32 47 -31 93q2 81 77 119q85 43 200 47z M1059 1556h-184v-945q0 -263 -52 -330q-74 -95 -155 -130q-98 -38 -215 -38q-87 0 -208 35q-154 45 -154 138q0 44 14 102h-184q-16 -53 -16 -128q0 -184 217 -260q163 -57 336 -55q199 2 302 55q79 45 170 123q113 -123 193 -123h130v184h-75q-26 0 -70 44q-49 49 -49 155 v1173z" />
<glyph unicode="&#x643;" arabic-form="initial" d="M402 0h-422v184h402q147 0 193 104q16 36 16 72q0 69 -54 135l-310 380q-50 61 -50 142q0 30 10 68q31 118 135 161l745 310v-186l-595 -250q-71 -30 -92 -70q-6 -11 -6 -36q0 -32 31 -69l275 -330q102 -122 102 -246q0 -113 -62 -214q-95 -155 -318 -155z" />
<glyph unicode="&#x643;" arabic-form="medial" d="M412 0h-432v184h412q147 0 194 104q16 36 16 72q0 69 -54 135l-310 380q-50 61 -50 142q0 30 10 68q30 118 134 161l746 310v-186l-596 -250q-70 -30 -92 -70q-6 -11 -6 -36q0 -32 32 -69l582 -705q22 -26 60 -40q44 -16 108 -16h88v-184h-132q-66 0 -124 24 q-102 43 -136 84l-96 120q-22 -46 -38 -73q-96 -155 -316 -155z" />
<glyph unicode="&#x644;" arabic-form="isolated" d="M67 0zM885 73q30 57 30 353v1130h184v-1130q0 -390 -50 -461q-108 -156 -209 -205q-150 -72 -312 -72q-99 0 -218 42q-242 86 -243 345q-1 138 63 230h184q-65 -115 -65 -230q0 -126 166 -192q40 -16 113 -16q105 0 189 34q99 41 168 172z" />
<glyph unicode="&#x644;" arabic-form="final" d="M1042 1556h-184v-1130q0 -296 -30 -353q-69 -131 -168 -172q-84 -34 -189 -34q-73 0 -113 16q-166 66 -166 192q0 115 65 230h-184q-64 -92 -63 -230q1 -259 243 -345q119 -42 218 -42q125 0 219 34q129 47 233 173q51 63 66 156q78 -51 134 -51h130v184h-75 q-43 0 -87 44q-49 49 -49 155v1173z" />
<glyph unicode="&#x644;" arabic-form="initial" d="M1001 371q0 -178 -87 -279q-80 -92 -352 -92h-582v184h526q218 0 262 44q49 49 49 155v1173h184v-1185z" />
<glyph unicode="&#x644;" arabic-form="medial" d="M616 86q-76 -86 -348 -86h-288v184h234q218 0 262 44q48 49 48 155v1173h184v-1173q0 -106 50 -155q44 -44 262 -44h233v-184h-289q-268 0 -348 86z" />
<glyph unicode="&#x645;" arabic-form="isolated" d="M130 0zM600 295q122 -42 198 -42q44 0 65 22q53 57 53 115q0 24 -6 44q-21 88 -80 105q-40 12 -86 12q-59 0 -86 -27q-68 -68 -68 -136q0 -40 10 -93zM480 155q-50 28 -125 -50q-25 -26 -25 -105v-492h-200v492q0 173 120 275q65 55 155 55q-2 42 -2 82q0 148 162 280 q77 63 169 63q77 0 156 -36q182 -83 210 -250q8 -45 8 -101q0 -146 -98 -211q-120 -80 -208 -80q-178 -2 -322 78z" />
<glyph unicode="&#x645;" arabic-form="final" d="M524 168q122 -42 198 -42q44 0 65 22q53 57 53 115q0 24 -6 44q-21 88 -80 105q-40 12 -86 12q-59 0 -86 -27q-68 -68 -68 -136q0 -40 10 -93zM962 52q-15 -14 -28 -22q-133 -80 -208 -80q-210 0 -322 78q-35 25 -108 -50q-25 -26 -25 -105v-365h-200v365q0 173 120 275 q65 55 138 55q-2 42 -2 82q0 148 162 280q77 63 169 63q72 0 156 -36q170 -71 210 -250q14 -64 55 -111t143 -47h31v-184h-86q-173 0 -205 52z" />
<glyph unicode="&#x645;" arabic-form="initial" d="M868 52q-96 -101 -236 -102q-212 -2 -324 98q-64 -48 -168 -48h-160v184h116q52 0 96 36q43 35 48 84q20 181 155 261q94 56 187 56q69 0 138 -29q189 -79 210 -250q4 -36 4 -78q0 -142 -66 -212zM406 199q62 -69 221 -69q47 0 66 18q52 53 52 122q0 19 -5 37 q-22 88 -80 105q-39 12 -78 12q-53 0 -94 -27q-50 -33 -65 -130q-7 -37 -17 -68z" />
<glyph unicode="&#x645;" arabic-form="medial" d="M892 52q-97 -102 -236 -102q-214 0 -324 98q-64 -48 -168 -48h-184v184h140q52 0 96 36q43 35 48 84q20 181 155 261q94 56 187 56q72 0 138 -29q193 -83 210 -250q5 -49 56 -111q38 -47 143 -47h100v-184h-155q-174 0 -206 52zM430 199q62 -69 221 -69q47 0 66 18 q52 53 52 122q0 19 -5 37q-22 88 -80 105q-39 12 -78 12q-53 0 -94 -27q-46 -30 -65 -130q-7 -37 -17 -68z" />
<glyph unicode="&#x646;" arabic-form="isolated" d="M1165 255q0 -187 -100 -351q-71 -116 -213 -176q-140 -59 -269 -59q-172 0 -295 63q-234 120 -234 394q0 174 53 316h184q-55 -174 -55 -316q0 -180 161 -247q57 -24 186 -24q84 0 147 20q157 51 215 218q34 98 34 194q0 249 -70 401h184q72 -159 72 -433zM467 900h150 v-150h-150v150z" />
<glyph unicode="&#x646;" arabic-form="final" d="M0 0zM375 687h150v-150h-150v150zM968 -265q-71 -116 -213 -176q-140 -59 -269 -59q-172 0 -295 63q-234 120 -234 394q0 174 53 316h184q-55 -174 -55 -316q0 -180 161 -247q57 -24 186 -24q84 0 147 20q157 51 215 218q33 94 33 213q0 184 -101 387h184q17 -51 52 -136 q34 -84 65 -140q35 -64 121 -64h52v-184h-94q-87 0 -101 48q-6 -173 -91 -313z" />
<glyph unicode="&#x646;" arabic-form="initial" d="M0 0zM608 86q-72 -86 -415 -86h-213v184h158q285 0 329 44q49 49 49 155v217h184v-217q0 -187 -92 -297zM528 1000h150v-150h-150v150z" />
<glyph unicode="&#x646;" arabic-form="medial" d="M0 0zM606 86q-76 -86 -291 -86h-335v184h280q162 0 206 44q48 49 48 155v217h184v-217q0 -106 50 -155q44 -44 207 -44h298v-184h-353q-214 0 -294 86zM533 1000h150v-150h-150v150z" />
<glyph unicode="&#x647;" arabic-form="isolated" d="M222 0zM526 554q-66 0 -99 -87q-26 -69 -25 -192q1 -82 56 -126q57 -44 114 -44q91 0 184 57q75 46 75 131q0 77 -66 142q-123 120 -239 119zM490 734q198 0 380 -160q141 -124 141 -272q-1 -200 -148 -275q-165 -85 -297 -85q-96 0 -177 35q-167 74 -167 313 q0 181 37 259q84 185 231 185z" />
<glyph unicode="&#x647;" arabic-form="final" d="M773 282q-15 42 -28 91q-13 50 -25 151q-120 -12 -202 -79q-111 -89 -109 -151q1 -41 91 -66t273 54zM706 668q-4 39 -7 82h184q1 -168 37 -342q21 -101 77 -180q31 -44 143 -44h113v-184h-168q-90 0 -163 51q-45 31 -83 90q-138 -73 -294 -73q-56 0 -114 15 q-189 48 -189 202q0 173 204 300q109 68 260 83z" />
<glyph unicode="&#x647;" arabic-form="initial" d="M442 269q36 27 70 91q39 72 39 133q0 46 -15 83q-22 52 -80 52q-65 0 -88 -45q-22 -43 -22 -78q0 -30 7 -67q21 -118 89 -169zM125 184q52 0 130 11q-45 105 -60 174q-18 78 -18 142q0 84 45 167q48 90 125 81q-44 39 -125 53v185q219 -67 439 -247q261 -214 320 -431 q14 -52 14 -109q0 -103 -40 -164q-74 -113 -249 -113q-131 0 -285 108q-120 -41 -266 -41h-175v184h145zM701 508q6 -37 6 -76q0 -138 -98 -252q-12 -14 -29 -33q52 -46 101 -46q126 0 142 67q7 30 7 63q0 60 -33 138q-29 69 -96 139z" />
<glyph unicode="&#x647;" arabic-form="medial" d="M484 184h19q42 0 138 76q114 90 114 142q0 112 -84 112q-75 0 -149 -141q-38 -72 -38 -189zM300 184q9 266 138 392q108 107 237 107q138 0 207 -99q46 -67 46 -181q0 -111 -163 -219h488v-184h-488q163 -108 163 -219q0 -114 -46 -181q-69 -99 -207 -99q-129 0 -237 107 q-129 128 -138 392h-320v184h320zM484 0q0 -117 38 -189q74 -141 149 -141q84 0 84 112q0 52 -114 142q-96 76 -138 76h-19z" />
<glyph unicode="&#x648;" arabic-form="isolated" d="M76 0zM737 452q-63 0 -107 -57q-24 -33 -24 -69q0 -55 51 -98q47 -40 239 -44q0 184 -86 243q-37 25 -73 25zM1075 184q0 -294 -172 -468q-45 -46 -231 -130q-190 -86 -596 -86v184q371 0 532 76q224 104 273 243q-118 3 -163 10q-139 24 -190 67q-116 98 -116 235 q0 217 211 307q57 24 119 24q89 0 161 -51q131 -91 155 -233q17 -102 17 -178z" />
<glyph unicode="&#x648;" arabic-form="final" d="M828 184q0 76 -16 133q-24 80 -70 110q-60 41 -120 15q-67 -29 -80 -85q-17 -75 47 -129q47 -40 239 -44zM1007 184h246v-184h-194l-70 1q-25 -156 -154 -285q-83 -83 -188 -130q-192 -86 -557 -86v184q361 0 493 76q168 95 230 243q-118 3 -163 10q-139 24 -190 67 q-106 89 -116 224q-2 31 8 88q27 155 203 230q59 25 124 24q87 -2 156 -51q133 -92 155 -233q13 -83 17 -178z" />
<glyph unicode="&#x649;" arabic-form="isolated" d="M25 0zM1145 12q-132 -195 -356 -243q-177 -38 -270 -38q-129 0 -201 26q-293 104 -293 365q0 117 63 230h184q-66 -131 -65 -230q2 -147 166 -192q75 -20 158 -20q120 0 228 35q107 35 172 113q59 71 59 105q0 46 -27 88q-34 51 -166 109q-98 44 -97 175q1 150 95 211 q77 50 173 50q143 0 198 -73q50 -66 67 -203h-184q0 61 -19 86q-27 34 -66 30q-20 -2 -44 -22q-35 -30 -35 -87q0 -41 125 -85q91 -32 146 -135q31 -58 32 -152q1 -77 -43 -143z" />
<glyph unicode="&#x649;" arabic-form="final" d="M769 51q-2 44 -11 56q-24 36 -48 61q-44 46 -44 107q0 78 41 125q77 91 164 108q29 6 73 6q130 0 176 -138q64 -192 98 -192h35v-184h-35q-127 0 -194 172q-64 165 -94 165q-34 -1 -50 -17q-20 -18 -20 -50q0 -3 42 -72q53 -87 53 -147q0 -83 -78 -166 q-104 -111 -285 -137q-140 -20 -216 -20q-121 0 -268 36q-228 56 -240 254q-6 92 30 230h178q-26 -80 -26 -196q1 -106 142 -132q69 -13 182 -13q130 0 188 17q128 37 148 52q60 46 59 75z" />
<glyph unicode="&#x64a;" arabic-form="isolated" d="M25 0zM1145 12q-132 -195 -356 -243q-177 -38 -270 -38q-129 0 -201 26q-293 104 -293 365q0 117 63 230h184q-66 -131 -65 -230q2 -147 166 -192q75 -20 158 -20q120 0 228 35q107 35 172 113q59 71 59 105q0 46 -27 88q-34 51 -166 109q-98 44 -97 175q1 150 95 211 q77 50 173 50q143 0 198 -73q50 -66 67 -203h-184q0 61 -19 86q-27 34 -66 30q-20 -2 -44 -22q-35 -30 -35 -87q0 -41 125 -85q91 -32 146 -135q31 -58 32 -152q1 -77 -43 -143zM595 -350h150v-150h-150v150zM345 -350h150v-150h-150v150z" />
<glyph unicode="&#x64a;" arabic-form="final" d="M0 0zM769 51q-2 44 -11 56q-24 36 -48 61q-44 46 -44 107q0 78 41 125q77 91 164 108q29 6 73 6q130 0 176 -138q64 -192 98 -192h35v-184h-35q-127 0 -194 172q-64 165 -94 165q-34 -1 -50 -17q-20 -18 -20 -50q0 -3 42 -72q53 -87 53 -147q0 -83 -78 -166 q-104 -111 -285 -137q-140 -20 -216 -20q-121 0 -268 36q-228 56 -240 254q-6 92 30 230h178q-26 -80 -26 -196q1 -106 142 -132q69 -13 182 -13q130 0 188 17q128 37 148 52q60 46 59 75zM442 -350h150v-150h-150v150zM192 -350h150v-150h-150v150z" />
<glyph unicode="&#x64a;" arabic-form="initial" d="M0 0zM636 -150h150v-150h-150v150zM386 -150h150v-150h-150v150zM608 86q-72 -86 -415 -86h-213v184h158q285 0 329 44q49 49 49 155v217h184v-217q0 -187 -92 -297z" />
<glyph unicode="&#x64a;" arabic-form="medial" d="M0 0zM653 -150h150v-150h-150v150zM403 -150h150v-150h-150v150zM606 86q-76 -86 -291 -86h-335v184h280q162 0 206 44q48 49 48 155v217h184v-217q0 -106 50 -155q44 -44 207 -44h298v-184h-353q-214 0 -294 86z" />
<glyph unicode="&#xd;" />
<glyph unicode=" " />
<glyph unicode="!" d="M516 1493h203v-655l-21 -357h-161l-21 357v655zM516 254h203v-254h-203v254z" />
<glyph unicode="&#x22;" d="M895 1493v-555h-174v555h174zM512 1493v-555h-174v555h174z" />
<glyph unicode="#" d="M684 1470l-104 -415h245l105 415h160l-105 -415h244v-154h-281l-84 -334h250v-153h-289l-104 -414h-160l105 414h-246l-105 -414h-159l104 414h-258v153h297l84 334h-266v154h303l104 415h160zM788 901h-245l-84 -334h246z" />
<glyph unicode="$" d="M692 580v-434q110 3 172 61t62 158q0 93 -56 144.5t-178 70.5zM592 770v413q-104 -4 -162.5 -60t-58.5 -150q0 -86 54.5 -136t166.5 -67zM692 -301h-100l-1 301q-102 5 -202.5 28t-198.5 64v180q100 -62 201.5 -95t200.5 -35v458q-200 31 -301 122t-101 241 q0 157 105.5 250.5t296.5 107.5v235h100l1 -235q79 -5 160 -20t165 -41v-173q-85 43 -165.5 66.5t-160.5 27.5v-431q206 -31 314 -128t108 -251t-116.5 -257t-304.5 -112z" />
<glyph unicode="%" d="M696 319q0 -78 52.5 -131t130.5 -53q77 0 130.5 53.5t53.5 130.5t-54 131t-130 54q-78 0 -130.5 -53t-52.5 -132zM561 319q0 135 92 227.5t226 92.5q64 0 121.5 -24t103.5 -70q46 -47 71 -105t25 -121q0 -133 -93 -226t-228 -93q-136 0 -227 91.5t-91 227.5zM121 465 l-35 96l1042 418l41 -96zM168 1112q0 -79 52.5 -131.5t131.5 -52.5q77 0 131 53.5t54 130.5t-54 130.5t-131 53.5t-130.5 -53t-53.5 -131zM33 1112q0 135 92 227.5t227 92.5q64 0 122.5 -24t103.5 -69t69.5 -103.5t24.5 -123.5q0 -134 -93 -226.5t-227 -92.5q-135 0 -227 92 t-92 227z" />
<glyph unicode="&#x26;" d="M547 907l416 -559q39 49 58 124t19 179q0 32 -3 102l-1 7h164v-39q0 -161 -37 -282.5t-112 -209.5l170 -229h-213l-78 109q-83 -70 -176 -104t-199 -34q-216 0 -357 134.5t-141 338.5q0 137 69 254t208 217q-50 72 -74 141t-24 140q0 150 99.5 237t272.5 87 q65 0 130.5 -12t135.5 -35v-183q-59 39 -121.5 57.5t-131.5 18.5q-97 0 -153 -45.5t-56 -122.5q0 -59 29 -123.5t106 -167.5zM416 803q-92 -73 -137.5 -154.5t-45.5 -173.5q0 -151 100 -250.5t255 -99.5q42 0 88 12t90 35q27 15 44.5 26.5t33.5 24.5z" />
<glyph unicode="'" d="M702 1493v-555h-174v555h174z" />
<glyph unicode="(" d="M885 1554q-133 -228 -198.5 -454.5t-65.5 -456.5q0 -229 65.5 -456t198.5 -457h-160q-151 238 -225 463.5t-74 449.5q0 223 74 449t225 462h160z" />
<glyph unicode=")" d="M348 1554h160q151 -236 225 -462t74 -449q0 -225 -74 -451t-225 -462h-160q133 232 198.5 459t65.5 454q0 228 -65.5 455t-198.5 456z" />
<glyph unicode="*" d="M1067 1247l-358 -194l358 -195l-57 -98l-336 203v-377h-115v377l-336 -203l-57 98l358 195l-358 194l57 99l336 -203v377h115v-377l336 203z" />
<glyph unicode="+" d="M700 1171v-444h445v-170h-445v-444h-168v444h-444v170h444v444h168z" />
<glyph unicode="," d="M502 303h252v-207l-197 -383h-154l99 383v207z" />
<glyph unicode="-" d="M356 643h521v-164h-521v164z" />
<glyph unicode="." d="M489 305h252v-305h-252v305z" />
<glyph unicode="/" d="M889 1493h190l-786 -1683h-191z" />
<glyph unicode="0" d="M483 750q0 55 38.5 95t92.5 40q56 0 96 -40t40 -95q0 -56 -39.5 -95t-96.5 -39q-56 0 -93.5 38t-37.5 96zM616 1360q-141 0 -210.5 -152t-69.5 -463q0 -310 69.5 -462t210.5 -152q142 0 211.5 152t69.5 462q0 311 -69.5 463t-211.5 152zM616 1520q239 0 361.5 -196 t122.5 -579q0 -382 -122.5 -578t-361.5 -196t-361 196t-122 578q0 383 122 579t361 196z" />
<glyph unicode="1" d="M270 170h314v1141l-338 -76v184l336 74h202v-1323h310v-170h-824v170z" />
<glyph unicode="2" d="M373 170h686v-170h-907v170q187 197 327 348t193 213q100 122 135 197.5t35 154.5q0 125 -73.5 196t-201.5 71q-91 0 -191 -33t-212 -100v204q103 49 202.5 74t196.5 25q219 0 352.5 -116.5t133.5 -305.5q0 -96 -44.5 -192t-144.5 -212q-56 -65 -162.5 -180t-324.5 -344z " />
<glyph unicode="3" d="M776 799q147 -39 225 -138.5t78 -248.5q0 -206 -138.5 -323.5t-383.5 -117.5q-103 0 -210 19t-210 55v201q102 -53 201 -79t197 -26q166 0 255 75t89 216q0 130 -89 206.5t-241 76.5h-154v166h154q139 0 217 61t78 170q0 115 -72.5 176.5t-206.5 61.5q-89 0 -184 -20 t-199 -60v186q121 32 215.5 48t167.5 16q218 0 348.5 -109.5t130.5 -290.5q0 -123 -68.5 -205t-199.5 -116z" />
<glyph unicode="4" d="M735 1309l-471 -789h471v789zM702 1493h234v-973h199v-164h-199v-356h-201v356h-633v191z" />
<glyph unicode="5" d="M207 1493h756v-170h-572v-367q43 16 86.5 23.5t87.5 7.5q232 0 368 -137t136 -371q0 -236 -142.5 -372t-389.5 -136q-119 0 -217.5 16t-176.5 48v205q92 -50 185 -74.5t190 -24.5q167 0 257.5 88t90.5 250q0 160 -93.5 249t-260.5 89q-81 0 -158 -18.5t-147 -55.5v750z " />
<glyph unicode="6" d="M991 1460v-186q-63 37 -134 56.5t-148 19.5q-192 0 -291 -144.5t-99 -425.5q48 100 133 153.5t195 53.5q216 0 334.5 -132.5t118.5 -375.5q0 -242 -122 -375t-343 -133q-260 0 -381 186.5t-121 587.5q0 378 145.5 576.5t421.5 198.5q74 0 148 -15.5t143 -44.5zM631 829 q-129 0 -203 -93t-74 -257t74 -257t203 -93q134 0 202 88.5t68 261.5q0 174 -68 262t-202 88z" />
<glyph unicode="7" d="M139 1493h940v-86l-534 -1407h-211l520 1323h-715v170z" />
<glyph unicode="8" d="M616 709q-135 0 -208.5 -75.5t-73.5 -213.5t74.5 -214.5t207.5 -76.5q136 0 209.5 75.5t73.5 215.5q0 137 -74.5 213t-208.5 76zM440 793q-129 33 -201.5 123t-72.5 217q0 178 121 282.5t329 104.5q209 0 330 -104.5t121 -282.5q0 -127 -72.5 -217t-201.5 -123 q150 -33 229.5 -133t79.5 -259q0 -202 -129 -316t-357 -114t-356.5 113.5t-128.5 314.5q0 160 79.5 260.5t229.5 133.5zM367 1114q0 -120 64 -183t185 -63q122 0 186 63t64 183q0 122 -63.5 186t-186.5 64q-121 0 -185 -64.5t-64 -185.5z" />
<glyph unicode="9" d="M596 662q129 0 202.5 93t73.5 257t-73.5 257t-202.5 93q-134 0 -202 -88.5t-68 -261.5q0 -174 67.5 -262t202.5 -88zM236 31v186q63 -37 134 -56.5t148 -19.5q192 0 290.5 144.5t98.5 425.5q-47 -100 -132 -153.5t-195 -53.5q-216 0 -334.5 133t-118.5 377 q0 241 121.5 373.5t343.5 132.5q260 0 381 -187t121 -588q0 -377 -145.5 -575.5t-422.5 -198.5q-73 0 -147 15.5t-143 44.5z" />
<glyph unicode=":" d="M489 1063h252v-303h-252v303zM489 305h252v-305h-252v305z" />
<glyph unicode=";" d="M502 303h252v-207l-197 -383h-154l99 383v207zM489 1063h252v-303h-252v303z" />
<glyph unicode="&#x3c;" d="M1145 961l-850 -320l850 -317v-183l-1057 418v166l1057 418v-182z" />
<glyph unicode="=" d="M88 524h1057v-172h-1057v172zM88 930h1057v-170h-1057v170z" />
<glyph unicode="&#x3e;" d="M88 961v182l1057 -418v-166l-1057 -418v183l850 317z" />
<glyph unicode="?" d="M684 401h-190v154q0 98 30.5 166.5t114.5 150.5l90 89q62 59 85.5 103t23.5 93q0 89 -65.5 144t-174.5 55q-78 0 -167 -34.5t-187 -102.5v188q94 57 189.5 85t199.5 28q186 0 296.5 -96t110.5 -257q0 -76 -33.5 -141.5t-127.5 -157.5l-88 -86q-69 -66 -88 -108t-19 -103 v-47v-123zM487 254h203v-254h-203v254z" />
<glyph unicode="@" d="M1038 545q0 129 -64 206.5t-171 77.5t-171.5 -77.5t-64.5 -206.5q0 -130 64.5 -207.5t171.5 -77.5t171 77.5t64 207.5zM1178 135h-144v111q-37 -63 -102.5 -97t-147.5 -34q-161 0 -266.5 121t-105.5 309t105.5 309t266.5 121q80 0 147 -35t103 -96v63q0 156 -88 251 t-233 95q-246 0 -391.5 -191.5t-145.5 -518.5q0 -329 165 -524t439 -195q54 0 108 10t111 31l48 -135q-63 -25 -124.5 -37t-119.5 -12q-357 0 -566.5 233t-209.5 629q0 390 188 621t504 231q209 0 334 -133t125 -357v-770z" />
<glyph unicode="A" d="M616 1315l-213 -764h426zM494 1493h245l457 -1493h-209l-110 389h-523l-108 -389h-209z" />
<glyph unicode="B" d="M369 713v-547h239q176 0 251 61.5t75 202.5q0 146 -79 214.5t-247 68.5h-239zM369 1327v-450h235q146 0 211.5 56t65.5 181q0 113 -64.5 163t-212.5 50h-235zM166 1493h442q229 0 353 -99t124 -280q0 -137 -65.5 -216t-196.5 -99q147 -22 230.5 -125.5t83.5 -263.5 q0 -203 -133 -306.5t-396 -103.5h-442v1493z" />
<glyph unicode="C" d="M1073 53q-77 -41 -158 -61.5t-172 -20.5q-287 0 -445.5 203t-158.5 571q0 366 159.5 570.5t444.5 204.5q91 0 172 -20.5t158 -61.5v-207q-74 61 -159 93t-171 32q-197 0 -295 -152t-98 -459q0 -306 98 -458t295 -152q88 0 172.5 32t157.5 93v-207z" />
<glyph unicode="D" d="M436 166q255 0 356 125.5t101 453.5q0 331 -100.5 456.5t-356.5 125.5h-96v-1161h96zM440 1493q342 0 504 -182t162 -566q0 -382 -162 -563.5t-504 -181.5h-303v1493h303z" />
<glyph unicode="E" d="M197 1493h886v-170h-684v-442h654v-170h-654v-541h703v-170h-905v1493z" />
<glyph unicode="F" d="M233 1493h879v-170h-676v-440h613v-170h-613v-713h-203v1493z" />
<glyph unicode="G" d="M1104 123q-81 -75 -182.5 -113.5t-219.5 -38.5q-284 0 -442 203.5t-158 570.5q0 366 160 570.5t445 204.5q94 0 180 -26.5t166 -80.5v-207q-81 77 -166 113.5t-180 36.5q-197 0 -295.5 -152.5t-98.5 -458.5q0 -311 95.5 -460.5t293.5 -149.5q67 0 117.5 15.5t91.5 48.5 v401h-217v166h410v-643z" />
<glyph unicode="H" d="M137 1493h203v-612h553v612h203v-1493h-203v711h-553v-711h-203v1493z" />
<glyph unicode="I" d="M201 1493h829v-170h-313v-1153h313v-170h-829v170h313v1153h-313v170z" />
<glyph unicode="J" d="M109 61v236q91 -81 188 -121.5t201 -40.5q143 0 199.5 74.5t56.5 277.5v836h-381v170h583v-1006q0 -282 -105.5 -399t-352.5 -117q-96 0 -191 22t-198 68z" />
<glyph unicode="K" d="M137 1493h203v-664l631 664h237l-581 -610l598 -883h-244l-487 748l-154 -164v-584h-203v1493z" />
<glyph unicode="L" d="M215 1493h203v-1323h721v-170h-924v1493z" />
<glyph unicode="M" d="M86 1493h270l258 -760l260 760h271v-1493h-187v1319l-266 -787h-153l-267 787v-1319h-186v1493z" />
<glyph unicode="N" d="M139 1493h256l504 -1229v1229h195v-1493h-256l-504 1229v-1229h-195v1493z" />
<glyph unicode="O" d="M905 745q0 329 -67.5 470t-221.5 141q-153 0 -220.5 -141t-67.5 -470q0 -328 67.5 -469t220.5 -141q154 0 221.5 140.5t67.5 469.5zM1116 745q0 -390 -123.5 -582t-376.5 -192t-376 191t-123 583q0 391 123.5 583t375.5 192q253 0 376.5 -192t123.5 -583z" />
<glyph unicode="P" d="M399 1327v-561h234q140 0 218.5 74t78.5 207t-78 206.5t-219 73.5h-234zM197 1493h436q250 0 379 -113.5t129 -332.5q0 -221 -128.5 -334t-379.5 -113h-234v-600h-202v1493z" />
<glyph unicode="Q" d="M655 -27q-7 0 -20 -1t-21 -1q-250 0 -373.5 192t-123.5 582q0 391 123.5 583t375.5 192q253 0 376.5 -192t123.5 -583q0 -294 -68.5 -473.5t-207.5 -251.5l200 -190l-151 -100zM905 745q0 329 -67.5 470t-221.5 141q-153 0 -220.5 -141t-67.5 -470q0 -328 67.5 -469 t220.5 -141q154 0 221.5 140.5t67.5 469.5z" />
<glyph unicode="R" d="M760 705q78 -20 133 -75.5t137 -221.5l203 -408h-217l-178 377q-77 161 -138.5 207.5t-160.5 46.5h-193v-631h-203v1493h416q246 0 377 -111t131 -321q0 -148 -80.5 -241.5t-226.5 -114.5zM346 1327v-530h221q145 0 216 65t71 199q0 129 -75.5 197.5t-219.5 68.5h-213z " />
<glyph unicode="S" d="M1012 1442v-205q-92 59 -184.5 89t-186.5 30q-143 0 -226 -66.5t-83 -179.5q0 -99 54.5 -151t203.5 -87l106 -24q210 -49 306 -154t96 -286q0 -213 -132 -325t-384 -112q-105 0 -211 22.5t-213 67.5v215q115 -73 217.5 -107t206.5 -34q153 0 238 68.5t85 191.5 q0 112 -58.5 171t-203.5 91l-108 25q-208 47 -302 142t-94 255q0 200 134.5 320.5t357.5 120.5q86 0 181 -19.5t200 -58.5z" />
<glyph unicode="T" d="M47 1493h1139v-170h-467v-1323h-203v1323h-469v170z" />
<glyph unicode="U" d="M147 573v920h203v-1012q0 -109 6 -155.5t21 -71.5q32 -59 92.5 -89t146.5 -30q87 0 147 30t93 89q15 25 21 71t6 154v1014h202v-920q0 -229 -28.5 -325.5t-98.5 -159.5q-66 -59 -151 -88t-191 -29q-105 0 -190 29t-152 88q-69 62 -98 160.5t-29 324.5z" />
<glyph unicode="V" d="M616 170l351 1323h209l-437 -1493h-245l-437 1493h209z" />
<glyph unicode="W" d="M0 1493h197l143 -1212l170 802h211l172 -804l143 1214h197l-223 -1493h-191l-203 887l-202 -887h-191z" />
<glyph unicode="X" d="M86 1493h217l328 -563l334 563h217l-447 -702l479 -791h-217l-366 643l-395 -643h-218l500 791z" />
<glyph unicode="Y" d="M37 1493h215l364 -659l363 659h217l-479 -823v-670h-203v670z" />
<glyph unicode="Z" d="M178 1493h969v-154l-780 -1169h802v-170h-1013v154l759 1169h-737v170z" />
<glyph unicode="[" d="M463 1556h424v-143h-240v-1540h240v-143h-424v1826z" />
<glyph unicode="\" d="M293 1493l786 -1683h-190l-787 1683h191z" />
<glyph unicode="]" d="M770 1556v-1826h-424v143h240v1540h-240v143h424z" />
<glyph unicode="^" d="M705 1493l456 -557h-178l-367 395l-366 -395h-178l456 557h177z" />
<glyph unicode="_" d="M1233 -403v-80h-1233v80h1233z" />
<glyph unicode="`" d="M477 1638l281 -376h-154l-325 376h198z" />
<glyph unicode="a" d="M702 563h-61q-161 0 -242.5 -56.5t-81.5 -168.5q0 -101 61 -157t169 -56q152 0 239 105.5t88 291.5v41h-172zM1059 639v-639h-185v166q-59 -100 -148.5 -147.5t-217.5 -47.5q-171 0 -273 96.5t-102 258.5q0 187 125.5 284t368.5 97h247v29q-1 134 -68 194.5t-214 60.5 q-94 0 -190 -27t-187 -79v184q102 39 195.5 58.5t181.5 19.5q139 0 237.5 -41t159.5 -123q38 -50 54 -123.5t16 -220.5z" />
<glyph unicode="b" d="M918 559q0 214 -68 323t-201 109q-134 0 -203 -109.5t-69 -322.5q0 -212 69 -322t203 -110q133 0 201 109t68 323zM377 977q44 82 121.5 126t179.5 44q202 0 318 -155.5t116 -428.5q0 -277 -116.5 -434.5t-319.5 -157.5q-100 0 -176.5 43.5t-122.5 126.5v-141h-184v1556 h184v-579z" />
<glyph unicode="c" d="M1061 57q-74 -43 -152.5 -64.5t-160.5 -21.5q-260 0 -406.5 156t-146.5 432t146.5 432t406.5 156q81 0 158 -21t155 -65v-193q-73 65 -146.5 94t-166.5 29q-173 0 -266 -112t-93 -320q0 -207 93.5 -319.5t265.5 -112.5q96 0 172 29.5t141 91.5v-191z" />
<glyph unicode="d" d="M858 977v579h184v-1556h-184v141q-46 -83 -122.5 -126.5t-176.5 -43.5q-203 0 -319.5 157.5t-116.5 434.5q0 273 117 428.5t319 155.5q101 0 178 -43.5t121 -126.5zM317 559q0 -214 68 -323t201 -109t202.5 110t69.5 322q0 213 -69.5 322.5t-202.5 109.5t-201 -109 t-68 -323z" />
<glyph unicode="e" d="M1112 606v-90h-797v-6q0 -183 95.5 -283t269.5 -100q88 0 184 28t205 85v-183q-105 -43 -202.5 -64.5t-188.5 -21.5q-261 0 -408 156.5t-147 431.5q0 268 144 428t384 160q214 0 337.5 -145t123.5 -396zM928 660q-4 162 -76.5 246.5t-208.5 84.5q-133 0 -219 -88 t-102 -244z" />
<glyph unicode="f" d="M1063 1556v-153h-209q-99 0 -137.5 -40.5t-38.5 -143.5v-99h385v-143h-385v-977h-184v977h-299v143h299v78q0 184 84.5 271t263.5 87h221z" />
<glyph unicode="g" d="M858 569q0 207 -67.5 314.5t-196.5 107.5q-135 0 -206 -107.5t-71 -314.5t71.5 -315.5t207.5 -108.5q127 0 194.5 109t67.5 315zM1042 72q0 -252 -119 -382t-350 -130q-76 0 -159 14t-166 41v182q98 -46 178 -68t147 -22q149 0 217 81t68 257v8v125q-44 -94 -120 -140 t-185 -46q-196 0 -313 157t-117 420q0 264 117 421t313 157q108 0 183 -43t122 -133v145h184v-1044z" />
<glyph unicode="h" d="M1051 694v-694h-185v694q0 151 -53 222t-166 71q-129 0 -198.5 -91.5t-69.5 -262.5v-633h-184v1556h184v-604q49 96 133 145.5t199 49.5q171 0 255.5 -112.5t84.5 -340.5z" />
<glyph unicode="i" d="M256 1120h471v-977h365v-143h-914v143h365v834h-287v143zM543 1556h184v-233h-184v233z" />
<glyph unicode="j" d="M600 -20v997h-317v143h501v-1140q0 -195 -89.5 -300.5t-254.5 -105.5h-254v156h234q90 0 135 62.5t45 187.5zM600 1556h184v-233h-184v233z" />
<glyph unicode="k" d="M236 1556h190v-901l483 465h224l-441 -422l510 -698h-225l-414 578l-137 -129v-449h-190v1556z" />
<glyph unicode="l" d="M639 406q0 -124 45.5 -187t134.5 -63h215v-156h-233q-165 0 -255.5 106t-90.5 300v1017h-295v144h479v-1161z" />
<glyph unicode="m" d="M676 1006q34 72 86.5 106.5t126.5 34.5q135 0 190.5 -104.5t55.5 -393.5v-649h-168v641q0 237 -26.5 294.5t-96.5 57.5q-80 0 -109.5 -61.5t-29.5 -290.5v-641h-168v641q0 240 -28.5 296t-102.5 56q-73 0 -101.5 -61.5t-28.5 -290.5v-641h-167v1120h167v-96 q33 60 82.5 91.5t112.5 31.5q76 0 126.5 -35t78.5 -106z" />
<glyph unicode="n" d="M1051 694v-694h-185v694q0 151 -53 222t-166 71q-129 0 -198.5 -91.5t-69.5 -262.5v-633h-184v1120h184v-168q49 96 133 145.5t199 49.5q171 0 255.5 -112.5t84.5 -340.5z" />
<glyph unicode="o" d="M616 991q-140 0 -212 -109t-72 -323q0 -213 72 -322.5t212 -109.5q141 0 213 109.5t72 322.5q0 214 -72 323t-213 109zM616 1147q233 0 356.5 -151t123.5 -437q0 -287 -123 -437.5t-357 -150.5q-233 0 -356 150.5t-123 437.5q0 286 123 437t356 151z" />
<glyph unicode="p" d="M375 141v-567h-185v1546h185v-143q46 83 122.5 126.5t176.5 43.5q203 0 318.5 -157t115.5 -435q0 -273 -116 -428.5t-318 -155.5q-102 0 -178.5 43.5t-120.5 126.5zM915 559q0 214 -67.5 323t-200.5 109q-134 0 -203 -109.5t-69 -322.5q0 -212 69 -322t203 -110 q133 0 200.5 109t67.5 323z" />
<glyph unicode="q" d="M332 555q0 -214 67.5 -323t200.5 -109t201.5 109.5t68.5 322.5t-68.5 322.5t-201.5 109.5t-200.5 -109t-67.5 -323zM870 139q-45 -83 -121.5 -127.5t-177.5 -44.5q-201 0 -317.5 155.5t-116.5 428.5q0 278 116 435t318 157q100 0 176.5 -43.5t122.5 -126.5v143h185v-1546 h-185v569z" />
<glyph unicode="r" d="M1155 889q-59 46 -120 67t-134 21q-172 0 -263 -108t-91 -312v-557h-185v1120h185v-219q46 119 141.5 182.5t226.5 63.5q68 0 127 -17t113 -53v-188z" />
<glyph unicode="s" d="M973 1081v-180q-79 46 -159 69t-163 23q-125 0 -186.5 -40.5t-61.5 -123.5q0 -75 46 -112t229 -72l74 -14q137 -26 207.5 -104t70.5 -203q0 -166 -118 -259.5t-328 -93.5q-83 0 -174 17.5t-197 52.5v190q103 -53 197 -79.5t178 -26.5q122 0 189 49.5t67 138.5 q0 128 -245 177l-8 2l-69 14q-159 31 -232 104.5t-73 200.5q0 161 109 248.5t311 87.5q90 0 173 -16.5t163 -49.5z" />
<glyph unicode="t" d="M614 1438v-318h418v-143h-418v-608q0 -124 47 -173t164 -49h207v-147h-225q-207 0 -292 83t-85 286v608h-299v143h299v318h184z" />
<glyph unicode="u" d="M195 424v694h184v-694q0 -151 53.5 -222t165.5 -71q130 0 199 91.5t69 262.5v633h185v-1118h-185v168q-49 -97 -133.5 -147t-197.5 -50q-172 0 -256 112.5t-84 340.5z" />
<glyph unicode="v" d="M100 1120h191l325 -940l326 940h191l-398 -1120h-237z" />
<glyph unicode="w" d="M0 1120h182l195 -905l160 578h157l162 -578l195 905h182l-262 -1120h-176l-179 614l-178 -614h-176z" />
<glyph unicode="x" d="M1118 1120l-401 -536l440 -584h-213l-328 449l-327 -449h-213l440 584l-401 536h204l297 -405l295 405h207z" />
<glyph unicode="y" d="M858 360q-46 -117 -117 -308q-99 -264 -133 -322q-46 -78 -115 -117t-161 -39h-148v154h109q81 0 127 47t117 243l-433 1102h195l332 -876l327 876h195z" />
<glyph unicode="z" d="M227 1122h813v-168l-643 -804h643v-150h-837v170l643 805h-619v147z" />
<glyph unicode="{" d="M1012 -190v-144h-64q-249 0 -333.5 74t-84.5 295v239q0 151 -53.5 209t-193.5 58h-62v143h62q141 0 194 57t53 207v240q0 221 84.5 294.5t333.5 73.5h64v-143h-70q-140 0 -182.5 -43.5t-42.5 -185.5v-248q0 -157 -45.5 -228t-155.5 -96q111 -27 156 -98t45 -227v-248 q0 -143 42.5 -186t182.5 -43h70z" />
<glyph unicode="|" d="M702 1565v-2048h-172v2048h172z" />
<glyph unicode="}" d="M221 -190h68q141 0 184 44t43 185v248q0 156 45 227t156 98q-110 25 -155.5 96t-45.5 228v248q0 141 -43 185t-184 44h-68v143h62q249 0 333 -73.5t84 -294.5v-240q0 -150 53.5 -207t194.5 -57h64v-143h-64q-141 0 -194.5 -58t-53.5 -209v-239q0 -221 -84 -295t-333 -74 h-62v144z" />
<glyph unicode="~" d="M1145 780v-174q-75 -59 -146.5 -86.5t-150.5 -27.5q-90 0 -203 51q-22 10 -33 14q-77 33 -128.5 45t-102.5 12q-79 0 -149.5 -29.5t-143.5 -92.5v174q78 60 151 87t156 27q53 0 103 -11t124 -42q12 -5 33 -15q116 -55 209 -55q70 0 138.5 30.5t142.5 92.5z" />
<glyph unicode="&#xa0;" />
<glyph unicode="&#xa1;" d="M516 1239v254h203v-254h-203zM516 0v655l21 357h161l21 -357v-655h-203z" />
<glyph unicode="&#xa2;" d="M1061 1077v-172q-67 40 -132 62t-128 26v-870q63 5 128.5 27.5t131.5 62.5v-172q-73 -31 -138 -48t-122 -20v-286h-103v286q-225 22 -355 178.5t-130 407.5q0 250 131.5 408.5t353.5 177.5v287h103v-287q57 -3 122 -20t138 -48zM698 127v864q-132 -12 -212 -130t-80 -302 t80 -301.5t212 -130.5z" />
<glyph unicode="&#xa3;" d="M1092 1462v-184q-62 44 -125.5 66t-130.5 22q-134 0 -197.5 -89.5t-63.5 -281.5v-217h371v-143h-371v-465h537v-170h-973v170h236v465h-199v143h199v238q0 254 109.5 379t332.5 125q65 0 133.5 -14.5t141.5 -43.5z" />
<glyph unicode="&#xa4;" d="M868 643q0 90 -62 151.5t-153 61.5q-90 0 -152.5 -61.5t-62.5 -151.5q0 -92 62.5 -154.5t152.5 -62.5q91 0 153 63t62 154zM844 924l166 166l90 -93l-166 -166q30 -49 44.5 -95.5t14.5 -94.5q0 -50 -15 -95.5t-46 -90.5l168 -166l-94 -94l-166 167q-46 -31 -91.5 -46 t-95.5 -15q-48 0 -96 14.5t-96 42.5l-164 -163l-92 90l166 166q-31 51 -45.5 97.5t-14.5 92.5q0 50 15.5 96.5t46.5 91.5l-168 166l94 95l166 -168q46 31 91.5 46t96.5 15q46 0 93 -14.5t98 -44.5z" />
<glyph unicode="&#xa5;" d="M37 1493h215l364 -659l363 659h217l-330 -561h252v-111h-315l-86 -151v-35h401v-111h-401v-524h-203v524h-399v111h399v35l-90 151h-309v111h243z" />
<glyph unicode="&#xa6;" d="M702 1432v-758h-172v758h172zM702 408v-758h-172v758h172z" />
<glyph unicode="&#xa7;" d="M936 1462v-164q-83 39 -154.5 58.5t-128.5 19.5q-97 0 -150.5 -40t-53.5 -111q0 -90 205 -205q26 -15 40 -23q212 -119 277 -196t65 -178q0 -90 -45.5 -160t-138.5 -123q61 -52 90 -106.5t29 -118.5q0 -142 -102 -226t-275 -84q-73 0 -150.5 14.5t-164.5 43.5v164 q87 -39 161 -58.5t131 -19.5q102 0 158.5 42t56.5 118q0 102 -221 225l-24 14q-214 120 -278 196.5t-64 178.5q0 91 46.5 162.5t137.5 120.5q-60 44 -89.5 100t-29.5 125q0 130 100 209.5t267 79.5q72 0 148.5 -14.5t156.5 -43.5zM485 936q-62 -45 -92.5 -90t-30.5 -92 q0 -76 70.5 -143.5t317.5 -200.5q62 45 92 90t30 92q0 76 -71.5 144t-315.5 200z" />
<glyph unicode="&#xa8;" d="M319 1552h203v-202h-203v202zM711 1552h202v-202h-202v202z" />
<glyph unicode="&#xa9;" d="M864 1071v-108q-58 28 -113.5 41.5t-113.5 13.5q-117 0 -184.5 -74.5t-67.5 -202.5q0 -132 70 -203t200 -71q56 0 107.5 12.5t101.5 38.5v-104q-52 -23 -109 -34t-118 -11q-180 0 -283.5 100t-103.5 272q0 173 104 274t283 101q61 0 118 -11t109 -34zM616 1255 q-106 0 -196.5 -37t-165.5 -112t-113.5 -167t-38.5 -198q0 -104 38.5 -195.5t113.5 -166.5q76 -76 166.5 -114t195.5 -38q106 0 196.5 38t166.5 114t113.5 166.5t37.5 195.5q0 106 -38 198t-113 167t-165.5 112t-197.5 37zM616 1358q127 0 236 -45t199 -135q90 -91 136 -201 t46 -236q0 -125 -45.5 -234t-136.5 -200t-200 -136.5t-235 -45.5q-125 0 -234 45.5t-200 136.5t-136.5 200t-45.5 234q0 126 46 236t136 201q90 90 199 135t235 45z" />
<glyph unicode="&#xaa;" d="M684 1104q-144 0 -206 -34t-62 -112q0 -64 43.5 -102.5t115.5 -38.5q105 0 170.5 71.5t65.5 186.5v29h-127zM954 1165v-448h-143v112q-49 -65 -114.5 -98t-147.5 -33q-129 0 -204 68t-75 184q0 129 93.5 199t265.5 70h182v4q0 90 -59.5 136t-176.5 46q-51 0 -113.5 -17.5 t-129.5 -50.5v127q68 28 135.5 42t130.5 14q184 0 270 -86t86 -269zM293 592h668v-123h-668v123z" />
<glyph unicode="&#xab;" d="M588 1059v-191l-301 -268l301 -268v-191l-469 418v82zM1042 1059v-191l-301 -268l301 -268v-191l-469 418v82z" />
<glyph unicode="&#xac;" d="M88 862h1057v-491h-168v319h-889v172z" />
<glyph unicode="&#xad;" d="M356 643h521v-164h-521v164z" />
<glyph unicode="&#xae;" d="M600 1100q147 0 219 -49t72 -150q0 -71 -44 -117.5t-124 -60.5q19 -5 48 -38.5t67 -92.5l114 -186h-143l-107 174q-49 80 -79.5 101t-75.5 21h-55v-296h-130v694h238zM594 1016h-102v-232h102q90 0 127 27t37 90q0 62 -37 88.5t-127 26.5zM616 1358q127 0 236 -45 t199 -135q90 -91 136 -201t46 -236q0 -125 -45.5 -234t-136.5 -200t-200 -136.5t-235 -45.5q-125 0 -234 45.5t-200 136.5t-136.5 200t-45.5 234q0 126 46 236t136 201q90 90 199 135t235 45zM616 1255q-106 0 -196.5 -37t-165.5 -112t-113.5 -167t-38.5 -198 q0 -104 38.5 -195.5t113.5 -166.5q76 -76 166.5 -114t195.5 -38q106 0 196.5 38t166.5 114t113.5 166.5t37.5 195.5q0 106 -38 198t-113 167t-165.5 112t-197.5 37z" />
<glyph unicode="&#xaf;" d="M317 1526h598v-148h-598v148z" />
<glyph unicode="&#xb0;" d="M616 1520q65 0 123.5 -24.5t102.5 -70.5q45 -45 68.5 -102t23.5 -123q0 -132 -93 -223.5t-227 -91.5q-135 0 -225 90t-90 225q0 134 92 227t225 93zM616 1391q-79 0 -134.5 -55.5t-55.5 -135.5t54.5 -134t133.5 -54q80 0 136.5 55t56.5 133q0 79 -56 135t-135 56z" />
<glyph unicode="&#xb1;" d="M88 170h1057v-170h-1057v170zM700 1171v-329h445v-170h-445v-332h-168v332h-444v170h444v329h168z" />
<glyph unicode="&#xb2;" d="M483 782h410v-114h-571v110l231 226q101 97 141.5 158t40.5 112q0 61 -50 99t-132 38q-49 0 -105.5 -18t-119.5 -54v125q65 28 125.5 42t119.5 14q142 0 228 -66.5t86 -173.5q0 -57 -37 -116.5t-156 -176.5z" />
<glyph unicode="&#xb3;" d="M731 1120q94 -21 143.5 -75t49.5 -134q0 -124 -95 -191t-272 -67q-58 0 -115 10.5t-116 30.5v121q69 -27 125.5 -40t101.5 -13q101 0 160 40.5t59 108.5q0 74 -55 112t-164 38h-66v108h74q93 0 142 31.5t49 91.5q0 56 -48 87.5t-135 31.5q-44 0 -100 -12t-115 -35v121 q69 17 127.5 26t108.5 9q145 0 229 -59t84 -158q0 -71 -44 -117.5t-128 -65.5z" />
<glyph unicode="&#xb4;" d="M756 1638h198l-325 -376h-154z" />
<glyph unicode="&#xb5;" d="M195 -428v1548h184v-696q0 -142 60 -217.5t171 -75.5q127 0 191.5 85t64.5 251v653h185v-864q0 -59 16 -87t49 -28q9 0 23.5 5t42.5 18v-148q-38 -23 -72 -34t-68 -11q-62 0 -99.5 39.5t-49.5 118.5q-46 -80 -112.5 -119t-155.5 -39q-92 0 -155.5 38t-107.5 118v-555 h-167z" />
<glyph unicode="&#xb6;" d="M582 1493h448v-1690h-141v1567h-191v-1567h-141v846q-215 17 -333 127.5t-118 294.5q0 190 130.5 306t345.5 116z" />
<glyph unicode="&#xb7;" d="M489 864h252v-305h-252v305z" />
<glyph unicode="&#xb8;" d="M395 0zM700 0q56 -62 82.5 -114.5t26.5 -100.5q0 -89 -60 -134.5t-178 -45.5q-45 0 -88.5 6t-87.5 18v131q34 -17 71.5 -24.5t84.5 -7.5q58 0 88.5 24t30.5 70q0 30 -22 73.5t-66 104.5h118z" />
<glyph unicode="&#xb9;" d="M362 778h205v611l-223 -41v116l229 39h138v-725h204v-110h-553v110z" />
<glyph unicode="&#xba;" d="M616 1403q-102 0 -159.5 -78t-57.5 -217t57.5 -216t159.5 -77q101 0 159.5 78.5t58.5 214.5q0 139 -57.5 217t-160.5 78zM616 1520q170 0 271.5 -112t101.5 -300q0 -187 -101 -298.5t-272 -111.5q-170 0 -271 111.5t-101 298.5q0 188 101.5 300t270.5 112zM276 592h676 v-123h-676v123z" />
<glyph unicode="&#xbb;" d="M647 1059l469 -418v-82l-469 -418v191l301 268l-301 268v191zM193 1059l469 -418v-82l-469 -418v191l301 268l-301 268v191z" />
<glyph unicode="&#xbc;" d="M27 0zM815 565h162v-538h116v-111h-116v-186h-138v186h-387v121zM839 440l-274 -413h274v413zM104 934h205v611l-223 -41v116l229 39h138v-725h204v-110h-553v110zM51 504l-24 108l1060 262l27 -108z" />
<glyph unicode="&#xbd;" d="M27 0zM104 934h205v611l-223 -41v116l229 39h138v-725h204v-110h-553v110zM51 504l-24 108l1060 262l27 -108zM684 -156h410v-114h-571v110l231 226q101 97 141.5 158t40.5 112q0 61 -50 99t-132 38q-49 0 -105.5 -18t-119.5 -54v125q65 28 125.5 42t119.5 14 q142 0 228 -66.5t86 -173.5q0 -57 -37 -116.5t-156 -176.5z" />
<glyph unicode="&#xbe;" d="M27 0zM815 565h162v-538h116v-111h-116v-186h-138v186h-387v121zM839 440l-274 -413h274v413zM504 1276q94 -21 143.5 -75t49.5 -134q0 -124 -95 -191t-272 -67q-58 0 -115 10.5t-116 30.5v121q69 -27 125.5 -40t101.5 -13q101 0 160 40.5t59 108.5q0 74 -55 112t-164 38 h-66v108h74q93 0 142 31.5t49 91.5q0 56 -48 87.5t-135 31.5q-44 0 -100 -12t-115 -35v121q69 17 127.5 26t108.5 9q145 0 229 -59t84 -158q0 -71 -44 -117.5t-128 -65.5zM51 504l-24 108l1060 262l27 -108z" />
<glyph unicode="&#xbf;" d="M549 1092h190v-154q0 -98 -30.5 -166.5t-114.5 -150.5l-90 -89q-62 -59 -85.5 -103t-23.5 -93q0 -89 65.5 -144t174.5 -55q78 0 167 34.5t187 102.5v-188q-94 -57 -189.5 -85t-199.5 -28q-186 0 -296.5 96t-110.5 257q0 76 33.5 141.5t127.5 157.5l88 86q67 64 86 106 t19 105v5q2 23 2 42v123zM745 1239h-202v254h202v-254z" />
<glyph unicode="&#xc0;" d="M37 0zM616 1315l-213 -764h426zM494 1493h245l457 -1493h-209l-110 389h-523l-108 -389h-209zM561 1899l197 -264h-154l-227 264h184z" />
<glyph unicode="&#xc1;" d="M37 0zM616 1315l-213 -764h426zM494 1493h245l457 -1493h-209l-110 389h-523l-108 -389h-209zM672 1899h186l-229 -264h-154z" />
<glyph unicode="&#xc2;" d="M37 0zM616 1315l-213 -764h426zM494 1493h245l457 -1493h-209l-110 389h-523l-108 -389h-209zM522 1901h189l211 -266h-140l-166 178l-165 -178h-140z" />
<glyph unicode="&#xc3;" d="M37 0zM616 1315l-213 -764h426zM494 1493h245l457 -1493h-209l-110 389h-523l-108 -389h-209zM612 1710l-57 33q-25 14 -40.5 19.5t-27.5 5.5q-35 0 -55 -25t-20 -70v-6h-125q0 101 51.5 160t136.5 59q36 0 66.5 -8t79.5 -35l57 -30q22 -13 39.5 -19t32.5 -6 q31 0 51 25.5t20 66.5v6h125q-2 -100 -53 -159.5t-135 -59.5q-34 0 -64 8t-82 35z" />
<glyph unicode="&#xc4;" d="M37 0zM616 1315l-213 -764h426zM494 1493h245l457 -1493h-209l-110 389h-523l-108 -389h-209zM319 1870h203v-203h-203v203zM711 1870h202v-203h-202v203z" />
<glyph unicode="&#xc5;" d="M768 1626q0 63 -44.5 107.5t-107.5 44.5q-64 0 -107.5 -43.5t-43.5 -108.5q0 -63 44 -107t107 -44t107.5 44t44.5 107zM616 1311l-213 -760h426zM465 1399q-58 33 -90.5 93.5t-32.5 133.5q0 114 80 194.5t194 80.5t194.5 -80.5t80.5 -194.5q0 -73 -32 -132t-91 -95 l428 -1399h-209l-110 389h-523l-108 -389h-209z" />
<glyph unicode="&#xc6;" d="M1161 1493v-170h-338v-442h307v-170h-307v-541h357v-170h-543v383h-352l-101 -383h-184l410 1493h751zM530 1323l-202 -772h309v772h-107z" />
<glyph unicode="&#xc7;" d="M139 0zM800 0q56 -62 82.5 -114.5t26.5 -100.5q0 -89 -60 -134.5t-178 -45.5q-45 0 -88.5 6t-87.5 18v131q34 -17 71.5 -24.5t84.5 -7.5q58 0 88.5 24t30.5 70q0 30 -22 73.5t-66 104.5h118zM1073 53q-77 -41 -158 -61.5t-172 -20.5q-287 0 -445.5 203t-158.5 571 q0 366 159.5 570.5t444.5 204.5q91 0 172 -20.5t158 -61.5v-207q-74 61 -159 93t-171 32q-197 0 -295 -152t-98 -459q0 -306 98 -458t295 -152q88 0 172.5 32t157.5 93v-207z" />
<glyph unicode="&#xc8;" d="M197 0zM197 1493h886v-170h-684v-442h654v-170h-654v-541h703v-170h-905v1493zM579 1899l197 -264h-154l-227 264h184z" />
<glyph unicode="&#xc9;" d="M197 0zM197 1493h886v-170h-684v-442h654v-170h-654v-541h703v-170h-905v1493zM690 1899h186l-229 -264h-154z" />
<glyph unicode="&#xca;" d="M197 0zM197 1493h886v-170h-684v-442h654v-170h-654v-541h703v-170h-905v1493zM540 1901h189l211 -266h-140l-166 178l-165 -178h-140z" />
<glyph unicode="&#xcb;" d="M197 0zM197 1493h886v-170h-684v-442h654v-170h-654v-541h703v-170h-905v1493zM337 1870h203v-203h-203v203zM729 1870h202v-203h-202v203z" />
<glyph unicode="&#xcc;" d="M201 0zM201 1493h829v-170h-313v-1153h313v-170h-829v170h313v1153h-313v170zM561 1899l197 -264h-154l-227 264h184z" />
<glyph unicode="&#xcd;" d="M201 0zM201 1493h829v-170h-313v-1153h313v-170h-829v170h313v1153h-313v170zM672 1899h186l-229 -264h-154z" />
<glyph unicode="&#xce;" d="M201 0zM201 1493h829v-170h-313v-1153h313v-170h-829v170h313v1153h-313v170zM522 1901h189l211 -266h-140l-166 178l-165 -178h-140z" />
<glyph unicode="&#xcf;" d="M201 0zM201 1493h829v-170h-313v-1153h313v-170h-829v170h313v1153h-313v170zM319 1870h203v-203h-203v203zM711 1870h202v-203h-202v203z" />
<glyph unicode="&#xd0;" d="M436 1493q342 0 504 -182t162 -566q0 -382 -162.5 -563.5t-503.5 -181.5h-303v709h-125v149h125v635h303zM436 166q255 0 356 125.5t101 453.5q0 331 -100.5 456.5t-356.5 125.5h-96v-469h264v-149h-264v-543h96z" />
<glyph unicode="&#xd1;" d="M139 0zM139 1493h256l504 -1229v1229h195v-1493h-256l-504 1229v-1229h-195v1493zM612 1714l-57 33q-25 14 -40.5 19.5t-27.5 5.5q-35 0 -55 -25t-20 -70v-6h-125q0 101 51.5 160t136.5 59q36 0 66.5 -8t79.5 -35l57 -30q22 -13 39.5 -19t32.5 -6q31 0 51 25.5t20 66.5v6 h125q-2 -100 -53 -159.5t-135 -59.5q-34 0 -64 8t-82 35z" />
<glyph unicode="&#xd2;" d="M117 0zM905 745q0 329 -67.5 470t-221.5 141q-153 0 -220.5 -141t-67.5 -470q0 -328 67.5 -469t220.5 -141q154 0 221.5 140.5t67.5 469.5zM1116 745q0 -390 -123.5 -582t-376.5 -192t-376 191t-123 583q0 391 123.5 583t375.5 192q253 0 376.5 -192t123.5 -583z M561 1899l197 -264h-154l-227 264h184z" />
<glyph unicode="&#xd3;" d="M117 0zM905 745q0 329 -67.5 470t-221.5 141q-153 0 -220.5 -141t-67.5 -470q0 -328 67.5 -469t220.5 -141q154 0 221.5 140.5t67.5 469.5zM1116 745q0 -390 -123.5 -582t-376.5 -192t-376 191t-123 583q0 391 123.5 583t375.5 192q253 0 376.5 -192t123.5 -583z M672 1899h186l-229 -264h-154z" />
<glyph unicode="&#xd4;" d="M117 0zM905 745q0 329 -67.5 470t-221.5 141q-153 0 -220.5 -141t-67.5 -470q0 -328 67.5 -469t220.5 -141q154 0 221.5 140.5t67.5 469.5zM1116 745q0 -390 -123.5 -582t-376.5 -192t-376 191t-123 583q0 391 123.5 583t375.5 192q253 0 376.5 -192t123.5 -583z M522 1901h189l211 -266h-140l-166 178l-165 -178h-140z" />
<glyph unicode="&#xd5;" d="M117 0zM905 745q0 329 -67.5 470t-221.5 141q-153 0 -220.5 -141t-67.5 -470q0 -328 67.5 -469t220.5 -141q154 0 221.5 140.5t67.5 469.5zM1116 745q0 -390 -123.5 -582t-376.5 -192t-376 191t-123 583q0 391 123.5 583t375.5 192q253 0 376.5 -192t123.5 -583z M612 1710l-57 33q-25 14 -40.5 19.5t-27.5 5.5q-35 0 -55 -25t-20 -70v-6h-125q0 101 51.5 160t136.5 59q36 0 66.5 -8t79.5 -35l57 -30q22 -13 39.5 -19t32.5 -6q31 0 51 25.5t20 66.5v6h125q-2 -100 -53 -159.5t-135 -59.5q-34 0 -64 8t-82 35z" />
<glyph unicode="&#xd6;" d="M117 0zM905 745q0 329 -67.5 470t-221.5 141q-153 0 -220.5 -141t-67.5 -470q0 -328 67.5 -469t220.5 -141q154 0 221.5 140.5t67.5 469.5zM1116 745q0 -390 -123.5 -582t-376.5 -192t-376 191t-123 583q0 391 123.5 583t375.5 192q253 0 376.5 -192t123.5 -583z M319 1870h203v-203h-203v203zM711 1870h202v-203h-202v203z" />
<glyph unicode="&#xd7;" d="M150 293l350 348l-350 350l116 117l350 -350l351 350l116 -117l-350 -350l348 -348l-116 -119l-349 350l-348 -350z" />
<glyph unicode="&#xd8;" d="M371 303q30 -78 95.5 -123t149.5 -45q154 0 221.5 140.5t67.5 469.5q0 110 -5 178t-15 113zM338 471l504 719q-25 81 -82.5 123.5t-143.5 42.5q-157 0 -222.5 -146t-65.5 -524q0 -80 2.5 -130.5t7.5 -84.5zM1032 1247q41 -81 62.5 -210t21.5 -292q0 -390 -123.5 -582 t-376.5 -192q-121 0 -211 40.5t-151 121.5l-143 -203l-103 70l178 252q-32 73 -50.5 204t-18.5 289q0 391 123.5 583t375.5 192q115 0 201.5 -41t143.5 -121l139 201l100 -74z" />
<glyph unicode="&#xd9;" d="M147 0zM147 573v920h203v-1012q0 -109 6 -155.5t21 -71.5q32 -59 92.5 -89t146.5 -30q87 0 147 30t93 89q15 25 21 71t6 154v1014h202v-920q0 -229 -28.5 -325.5t-98.5 -159.5q-66 -59 -151 -88t-191 -29q-105 0 -190 29t-152 88q-69 62 -98 160.5t-29 324.5zM561 1899 l197 -264h-154l-227 264h184z" />
<glyph unicode="&#xda;" d="M147 0zM147 573v920h203v-1012q0 -109 6 -155.5t21 -71.5q32 -59 92.5 -89t146.5 -30q87 0 147 30t93 89q15 25 21 71t6 154v1014h202v-920q0 -229 -28.5 -325.5t-98.5 -159.5q-66 -59 -151 -88t-191 -29q-105 0 -190 29t-152 88q-69 62 -98 160.5t-29 324.5zM672 1899 h186l-229 -264h-154z" />
<glyph unicode="&#xdb;" d="M147 0zM147 573v920h203v-1012q0 -109 6 -155.5t21 -71.5q32 -59 92.5 -89t146.5 -30q87 0 147 30t93 89q15 25 21 71t6 154v1014h202v-920q0 -229 -28.5 -325.5t-98.5 -159.5q-66 -59 -151 -88t-191 -29q-105 0 -190 29t-152 88q-69 62 -98 160.5t-29 324.5zM522 1901 h189l211 -266h-140l-166 178l-165 -178h-140z" />
<glyph unicode="&#xdc;" d="M147 0zM147 573v920h203v-1012q0 -109 6 -155.5t21 -71.5q32 -59 92.5 -89t146.5 -30q87 0 147 30t93 89q15 25 21 71t6 154v1014h202v-920q0 -229 -28.5 -325.5t-98.5 -159.5q-66 -59 -151 -88t-191 -29q-105 0 -190 29t-152 88q-69 62 -98 160.5t-29 324.5zM319 1870 h203v-203h-203v203zM711 1870h202v-203h-202v203z" />
<glyph unicode="&#xdd;" d="M37 0zM37 1493h215l364 -659l363 659h217l-479 -823v-670h-203v670zM672 1899h186l-229 -264h-154z" />
<glyph unicode="&#xde;" d="M403 1057v-525h234q158 0 236.5 66t78.5 197t-78.5 196.5t-236.5 65.5h-234zM201 1493h202v-270h254q260 0 384 -105t124 -323q0 -219 -124 -323.5t-384 -104.5h-254v-367h-202v1493z" />
<glyph unicode="&#xdf;" d="M188 1137q0 213 105 316t321 103q204 0 309 -110.5t107 -326.5q-155 -14 -239 -76t-84 -162q0 -49 27.5 -87.5t94.5 -80.5l58 -37q151 -93 206.5 -175t55.5 -198q0 -154 -112 -243t-308 -89q-69 0 -136.5 12.5t-133.5 36.5v164q76 -31 142.5 -46t125.5 -15 q108 0 172 48.5t64 129.5q0 71 -32.5 118.5t-152.5 121.5l-67 39q-92 56 -137.5 122.5t-45.5 145.5q0 128 81 213.5t237 120.5q-2 107 -62.5 164t-173.5 57q-121 0 -178 -65.5t-57 -204.5v-1133h-187v1137z" />
<glyph unicode="&#xe0;" d="M133 0zM702 563h-61q-161 0 -242.5 -56.5t-81.5 -168.5q0 -101 61 -157t169 -56q152 0 239 105.5t88 291.5v41h-172zM1059 639v-639h-185v166q-59 -100 -148.5 -147.5t-217.5 -47.5q-171 0 -273 96.5t-102 258.5q0 187 125.5 284t368.5 97h247v29q-1 134 -68 194.5 t-214 60.5q-94 0 -190 -27t-187 -79v184q102 39 195.5 58.5t181.5 19.5q139 0 237.5 -41t159.5 -123q38 -50 54 -123.5t16 -220.5zM477 1638l281 -376h-154l-325 376h198z" />
<glyph unicode="&#xe1;" d="M133 0zM702 563h-61q-161 0 -242.5 -56.5t-81.5 -168.5q0 -101 61 -157t169 -56q152 0 239 105.5t88 291.5v41h-172zM1059 639v-639h-185v166q-59 -100 -148.5 -147.5t-217.5 -47.5q-171 0 -273 96.5t-102 258.5q0 187 125.5 284t368.5 97h247v29q-1 134 -68 194.5 t-214 60.5q-94 0 -190 -27t-187 -79v184q102 39 195.5 58.5t181.5 19.5q139 0 237.5 -41t159.5 -123q38 -50 54 -123.5t16 -220.5zM756 1638h198l-325 -376h-154z" />
<glyph unicode="&#xe2;" d="M133 0zM702 563h-61q-161 0 -242.5 -56.5t-81.5 -168.5q0 -101 61 -157t169 -56q152 0 239 105.5t88 291.5v41h-172zM1059 639v-639h-185v166q-59 -100 -148.5 -147.5t-217.5 -47.5q-171 0 -273 96.5t-102 258.5q0 187 125.5 284t368.5 97h247v29q-1 134 -68 194.5 t-214 60.5q-94 0 -190 -27t-187 -79v184q102 39 195.5 58.5t181.5 19.5q139 0 237.5 -41t159.5 -123q38 -50 54 -123.5t16 -220.5zM543 1638h147l246 -376h-139l-181 245l-180 -245h-139z" />
<glyph unicode="&#xe3;" d="M133 0zM702 563h-61q-161 0 -242.5 -56.5t-81.5 -168.5q0 -101 61 -157t169 -56q152 0 239 105.5t88 291.5v41h-172zM1059 639v-639h-185v166q-59 -100 -148.5 -147.5t-217.5 -47.5q-171 0 -273 96.5t-102 258.5q0 187 125.5 284t368.5 97h247v29q-1 134 -68 194.5 t-214 60.5q-94 0 -190 -27t-187 -79v184q102 39 195.5 58.5t181.5 19.5q139 0 237.5 -41t159.5 -123q38 -50 54 -123.5t16 -220.5zM612 1370l-57 55q-21 20 -37.5 29.5t-30.5 9.5q-38 0 -56 -37t-20 -118h-124q1 134 52 208t142 74q39 0 71 -14t69 -47l57 -55 q21 -20 37.5 -29.5t29.5 -9.5q39 0 57 37t19 118h125q-1 -134 -52 -208t-142 -74q-39 0 -71 14t-69 47z" />
<glyph unicode="&#xe4;" d="M133 0zM702 563h-61q-161 0 -242.5 -56.5t-81.5 -168.5q0 -101 61 -157t169 -56q152 0 239 105.5t88 291.5v41h-172zM1059 639v-639h-185v166q-59 -100 -148.5 -147.5t-217.5 -47.5q-171 0 -273 96.5t-102 258.5q0 187 125.5 284t368.5 97h247v29q-1 134 -68 194.5 t-214 60.5q-94 0 -190 -27t-187 -79v184q102 39 195.5 58.5t181.5 19.5q139 0 237.5 -41t159.5 -123q38 -50 54 -123.5t16 -220.5zM319 1552h203v-202h-203v202zM711 1552h202v-202h-202v202z" />
<glyph unicode="&#xe5;" d="M133 0zM702 563h-61q-161 0 -242.5 -56.5t-81.5 -168.5q0 -101 61 -157t169 -56q152 0 239 105.5t88 291.5v41h-172zM1059 639v-639h-185v166q-59 -100 -148.5 -147.5t-217.5 -47.5q-171 0 -273 96.5t-102 258.5q0 187 125.5 284t368.5 97h247v29q-1 134 -68 194.5 t-214 60.5q-94 0 -190 -27t-187 -79v184q102 39 195.5 58.5t181.5 19.5q139 0 237.5 -41t159.5 -123q38 -50 54 -123.5t16 -220.5zM891 1524q0 -115 -79.5 -195t-195.5 -80q-115 0 -194.5 80t-79.5 195t79.5 194.5t194.5 79.5q116 0 195.5 -79.5t79.5 -194.5zM768 1524 q0 63 -44 107t-108 44t-107.5 -43.5t-43.5 -107.5q0 -65 43.5 -108.5t107.5 -43.5t108 44t44 108z" />
<glyph unicode="&#xe6;" d="M543 442v72h-49q-169 0 -229 -45t-60 -158q0 -89 44.5 -137.5t127.5 -48.5q92 0 129 66.5t37 250.5zM1036 657v52q0 151 -38.5 217.5t-125.5 66.5t-125 -68t-38 -225v-43h327zM1200 514h-491q-1 -15 -1.5 -32.5t-0.5 -51.5q0 -161 50.5 -233t162.5 -72q79 0 143.5 25.5 t114.5 76.5v-172q-55 -41 -121 -62.5t-137 -21.5q-110 0 -184.5 41t-106.5 119q-39 -80 -105.5 -120t-163.5 -40q-156 0 -237.5 86t-81.5 250q0 171 100 260.5t291 89.5h117v88q0 120 -49.5 184t-143.5 64q-56 0 -122 -21.5t-128 -60.5v168q77 35 143 51.5t126 16.5 q91 0 153 -31.5t99 -95.5q33 61 99 94t155 33q174 0 246.5 -118.5t72.5 -424.5v-90z" />
<glyph unicode="&#xe7;" d="M195 0zM804 0q56 -62 82.5 -114.5t26.5 -100.5q0 -89 -60 -134.5t-178 -45.5q-45 0 -88.5 6t-87.5 18v131q34 -17 71.5 -24.5t84.5 -7.5q58 0 88.5 24t30.5 70q0 30 -22 73.5t-66 104.5h118zM1061 57q-74 -43 -152.5 -64.5t-160.5 -21.5q-260 0 -406.5 156t-146.5 432 t146.5 432t406.5 156q81 0 158 -21t155 -65v-193q-73 65 -146.5 94t-166.5 29q-173 0 -266 -112t-93 -320q0 -207 93.5 -319.5t265.5 -112.5q96 0 172 29.5t141 91.5v-191z" />
<glyph unicode="&#xe8;" d="M123 0zM1112 606v-90h-797v-6q0 -183 95.5 -283t269.5 -100q88 0 184 28t205 85v-183q-105 -43 -202.5 -64.5t-188.5 -21.5q-261 0 -408 156.5t-147 431.5q0 268 144 428t384 160q214 0 337.5 -145t123.5 -396zM928 660q-4 162 -76.5 246.5t-208.5 84.5q-133 0 -219 -88 t-102 -244zM491 1638l281 -376h-154l-325 376h198z" />
<glyph unicode="&#xe9;" d="M123 0zM1112 606v-90h-797v-6q0 -183 95.5 -283t269.5 -100q88 0 184 28t205 85v-183q-105 -43 -202.5 -64.5t-188.5 -21.5q-261 0 -408 156.5t-147 431.5q0 268 144 428t384 160q214 0 337.5 -145t123.5 -396zM928 660q-4 162 -76.5 246.5t-208.5 84.5q-133 0 -219 -88 t-102 -244zM770 1638h198l-325 -376h-154z" />
<glyph unicode="&#xea;" d="M123 0zM1112 606v-90h-797v-6q0 -183 95.5 -283t269.5 -100q88 0 184 28t205 85v-183q-105 -43 -202.5 -64.5t-188.5 -21.5q-261 0 -408 156.5t-147 431.5q0 268 144 428t384 160q214 0 337.5 -145t123.5 -396zM928 660q-4 162 -76.5 246.5t-208.5 84.5q-133 0 -219 -88 t-102 -244zM557 1638h147l246 -376h-139l-181 245l-180 -245h-139z" />
<glyph unicode="&#xeb;" d="M123 0zM1112 606v-90h-797v-6q0 -183 95.5 -283t269.5 -100q88 0 184 28t205 85v-183q-105 -43 -202.5 -64.5t-188.5 -21.5q-261 0 -408 156.5t-147 431.5q0 268 144 428t384 160q214 0 337.5 -145t123.5 -396zM928 660q-4 162 -76.5 246.5t-208.5 84.5q-133 0 -219 -88 t-102 -244zM333 1552h203v-202h-203v202zM725 1552h202v-202h-202v202z" />
<glyph unicode="&#xec;" d="M178 0zM256 1120h471v-977h365v-143h-914v143h365v834h-287v143zM477 1638l281 -376h-154l-325 376h198z" />
<glyph unicode="&#xed;" d="M178 0zM256 1120h471v-977h365v-143h-914v143h365v834h-287v143zM756 1638h198l-325 -376h-154z" />
<glyph unicode="&#xee;" d="M178 0zM256 1120h471v-977h365v-143h-914v143h365v834h-287v143zM543 1638h147l246 -376h-139l-181 245l-180 -245h-139z" />
<glyph unicode="&#xef;" d="M178 0zM256 1120h471v-977h365v-143h-914v143h365v834h-287v143zM343 1552h203v-202h-203v202zM735 1552h202v-202h-202v202z" />
<glyph unicode="&#xf0;" d="M717 1327q197 -212 288 -402t91 -390q0 -268 -125.5 -416t-354.5 -148q-228 0 -353.5 148t-125.5 416q0 265 125.5 413t349.5 148q34 0 51.5 -1t32.5 -3q-33 45 -69 89.5t-74 88.5l-279 -92l-30 98l237 80l-182 200h219l127 -145l289 94l33 -98zM793 918q-35 13 -76 19.5 t-86 6.5q-146 0 -222.5 -105t-76.5 -304q0 -196 74 -302t210 -106q137 0 211 106t74 302q0 110 -29 211.5t-79 171.5z" />
<glyph unicode="&#xf1;" d="M195 0zM1051 694v-694h-185v694q0 151 -53 222t-166 71q-129 0 -198.5 -91.5t-69.5 -262.5v-633h-184v1120h184v-168q49 96 133 145.5t199 49.5q171 0 255.5 -112.5t84.5 -340.5zM612 1370l-57 55q-21 20 -37.5 29.5t-30.5 9.5q-38 0 -56 -37t-20 -118h-124q1 134 52 208 t142 74q39 0 71 -14t69 -47l57 -55q21 -20 37.5 -29.5t29.5 -9.5q39 0 57 37t19 118h125q-1 -134 -52 -208t-142 -74q-39 0 -71 14t-69 47z" />
<glyph unicode="&#xf2;" d="M137 0zM616 991q-140 0 -212 -109t-72 -323q0 -213 72 -322.5t212 -109.5q141 0 213 109.5t72 322.5q0 214 -72 323t-213 109zM616 1147q233 0 356.5 -151t123.5 -437q0 -287 -123 -437.5t-357 -150.5q-233 0 -356 150.5t-123 437.5q0 286 123 437t356 151zM477 1638 l281 -376h-154l-325 376h198z" />
<glyph unicode="&#xf3;" d="M137 0zM616 991q-140 0 -212 -109t-72 -323q0 -213 72 -322.5t212 -109.5q141 0 213 109.5t72 322.5q0 214 -72 323t-213 109zM616 1147q233 0 356.5 -151t123.5 -437q0 -287 -123 -437.5t-357 -150.5q-233 0 -356 150.5t-123 437.5q0 286 123 437t356 151zM756 1638h198 l-325 -376h-154z" />
<glyph unicode="&#xf4;" d="M137 0zM616 991q-140 0 -212 -109t-72 -323q0 -213 72 -322.5t212 -109.5q141 0 213 109.5t72 322.5q0 214 -72 323t-213 109zM616 1147q233 0 356.5 -151t123.5 -437q0 -287 -123 -437.5t-357 -150.5q-233 0 -356 150.5t-123 437.5q0 286 123 437t356 151zM543 1638h147 l246 -376h-139l-181 245l-180 -245h-139z" />
<glyph unicode="&#xf5;" d="M137 0zM616 991q-140 0 -212 -109t-72 -323q0 -213 72 -322.5t212 -109.5q141 0 213 109.5t72 322.5q0 214 -72 323t-213 109zM616 1147q233 0 356.5 -151t123.5 -437q0 -287 -123 -437.5t-357 -150.5q-233 0 -356 150.5t-123 437.5q0 286 123 437t356 151zM612 1370 l-57 55q-21 20 -37.5 29.5t-30.5 9.5q-38 0 -56 -37t-20 -118h-124q1 134 52 208t142 74q39 0 71 -14t69 -47l57 -55q21 -20 37.5 -29.5t29.5 -9.5q39 0 57 37t19 118h125q-1 -134 -52 -208t-142 -74q-39 0 -71 14t-69 47z" />
<glyph unicode="&#xf6;" d="M137 0zM616 991q-140 0 -212 -109t-72 -323q0 -213 72 -322.5t212 -109.5q141 0 213 109.5t72 322.5q0 214 -72 323t-213 109zM616 1147q233 0 356.5 -151t123.5 -437q0 -287 -123 -437.5t-357 -150.5q-233 0 -356 150.5t-123 437.5q0 286 123 437t356 151zM319 1552h203 v-202h-203v202zM711 1552h202v-202h-202v202z" />
<glyph unicode="&#xf7;" d="M494 395h245v-245h-245v245zM494 1135h245v-246h-245v246zM88 727h1057v-170h-1057v170z" />
<glyph unicode="&#xf8;" d="M877 780l-463 -559q36 -47 86.5 -70.5t115.5 -23.5q141 0 213 109.5t72 322.5q0 52 -6 107.5t-18 113.5zM817 897q-35 48 -84.5 71t-116.5 23q-139 0 -213.5 -107t-74.5 -309q0 -48 7 -106t21 -129zM217 180q-39 71 -59.5 168.5t-20.5 210.5q0 286 123 437t356 151 q100 0 179 -27.5t139 -83.5l147 176l93 -77l-164 -195q42 -66 64 -162.5t22 -218.5q0 -287 -123 -437.5t-357 -150.5q-103 0 -181.5 29.5t-135.5 89.5l-160 -186l-92 76z" />
<glyph unicode="&#xf9;" d="M195 0zM195 424v694h184v-694q0 -151 53.5 -222t165.5 -71q130 0 199 91.5t69 262.5v633h185v-1118h-185v168q-49 -97 -133.5 -147t-197.5 -50q-172 0 -256 112.5t-84 340.5zM477 1638l281 -376h-154l-325 376h198z" />
<glyph unicode="&#xfa;" d="M195 0zM195 424v694h184v-694q0 -151 53.5 -222t165.5 -71q130 0 199 91.5t69 262.5v633h185v-1118h-185v168q-49 -97 -133.5 -147t-197.5 -50q-172 0 -256 112.5t-84 340.5zM756 1638h198l-325 -376h-154z" />
<glyph unicode="&#xfb;" d="M195 0zM195 424v694h184v-694q0 -151 53.5 -222t165.5 -71q130 0 199 91.5t69 262.5v633h185v-1118h-185v168q-49 -97 -133.5 -147t-197.5 -50q-172 0 -256 112.5t-84 340.5zM543 1638h147l246 -376h-139l-181 245l-180 -245h-139z" />
<glyph unicode="&#xfc;" d="M195 0zM195 424v694h184v-694q0 -151 53.5 -222t165.5 -71q130 0 199 91.5t69 262.5v633h185v-1118h-185v168q-49 -97 -133.5 -147t-197.5 -50q-172 0 -256 112.5t-84 340.5zM319 1552h203v-202h-203v202zM711 1552h202v-202h-202v202z" />
<glyph unicode="&#xfd;" d="M104 0zM858 360q-46 -117 -117 -308q-99 -264 -133 -322q-46 -78 -115 -117t-161 -39h-148v154h109q81 0 127 47t117 243l-433 1102h195l332 -876l327 876h195zM756 1638h198l-325 -376h-154z" />
<glyph unicode="&#xfe;" d="M375 141v-567h-185v1993h185v-590q46 83 122.5 126.5t176.5 43.5q203 0 318.5 -157t115.5 -435q0 -273 -116 -428.5t-318 -155.5q-102 0 -178.5 43.5t-120.5 126.5zM915 559q0 214 -67.5 323t-200.5 109q-134 0 -203 -109.5t-69 -322.5q0 -212 69 -322t203 -110 q133 0 200.5 109t67.5 323z" />
<glyph unicode="&#xff;" d="M104 0zM858 360q-46 -117 -117 -308q-99 -264 -133 -322q-46 -78 -115 -117t-161 -39h-148v154h109q81 0 127 47t117 243l-433 1102h195l332 -876l327 876h195zM319 1552h203v-202h-203v202zM711 1552h202v-202h-202v202z" />
<glyph unicode="&#x100;" d="M37 0zM317 1840h598v-148h-598v148zM616 1315l-213 -764h426zM494 1493h245l457 -1493h-209l-110 389h-523l-108 -389h-209z" />
<glyph unicode="&#x101;" d="M133 0zM317 1526h598v-148h-598v148zM702 563h-61q-161 0 -242.5 -56.5t-81.5 -168.5q0 -101 61 -157t169 -56q152 0 239 105.5t88 291.5v41h-172zM1059 639v-639h-185v166q-59 -100 -148.5 -147.5t-217.5 -47.5q-171 0 -273 96.5t-102 258.5q0 187 125.5 284t368.5 97 h247v29q-1 134 -68 194.5t-214 60.5q-94 0 -190 -27t-187 -79v184q102 39 195.5 58.5t181.5 19.5q139 0 237.5 -41t159.5 -123q38 -50 54 -123.5t16 -220.5z" />
<glyph unicode="&#x102;" d="M37 0zM303 1901h119q12 -54 62 -82.5t132 -28.5q83 0 131.5 27.5t63.5 83.5h119q-11 -119 -90.5 -180.5t-223.5 -61.5t-223 61t-90 181zM616 1315l-213 -764h426zM494 1493h245l457 -1493h-209l-110 389h-523l-108 -389h-209z" />
<glyph unicode="&#x103;" d="M133 0zM303 1608h119q11 -76 59 -113t135 -37q85 0 133 37t62 113h119q-11 -143 -90 -215t-224 -72q-144 0 -223 72t-90 215zM702 563h-61q-161 0 -242.5 -56.5t-81.5 -168.5q0 -101 61 -157t169 -56q152 0 239 105.5t88 291.5v41h-172zM1059 639v-639h-185v166 q-59 -100 -148.5 -147.5t-217.5 -47.5q-171 0 -273 96.5t-102 258.5q0 187 125.5 284t368.5 97h247v29q-1 134 -68 194.5t-214 60.5q-94 0 -190 -27t-187 -79v184q102 39 195.5 58.5t181.5 19.5q139 0 237.5 -41t159.5 -123q38 -50 54 -123.5t16 -220.5z" />
<glyph unicode="&#x104;" d="M37 0zM983 0h119q-45 -61 -66.5 -105t-21.5 -75q0 -46 27.5 -69t81.5 -23q32 0 63 7.5t62 22.5v-133q-38 -10 -72 -15t-64 -5q-122 0 -179.5 43.5t-57.5 136.5q0 48 26.5 100.5t81.5 114.5zM616 1315l-213 -764h426zM494 1493h245l457 -1493h-209l-110 389h-523 l-108 -389h-209z" />
<glyph unicode="&#x105;" d="M133 0zM873 0h119q-45 -61 -66.5 -105t-21.5 -75q0 -46 27.5 -69t81.5 -23q32 0 63 7.5t62 22.5v-133q-38 -10 -72 -15t-64 -5q-122 0 -179.5 43.5t-57.5 136.5q0 48 26.5 100.5t81.5 114.5zM702 563h-61q-161 0 -242.5 -56.5t-81.5 -168.5q0 -101 61 -157t169 -56 q152 0 239 105.5t88 291.5v41h-172zM1059 639v-639h-185v166q-59 -100 -148.5 -147.5t-217.5 -47.5q-171 0 -273 96.5t-102 258.5q0 187 125.5 284t368.5 97h247v29q-1 134 -68 194.5t-214 60.5q-94 0 -190 -27t-187 -79v184q102 39 195.5 58.5t181.5 19.5q139 0 237.5 -41 t159.5 -123q38 -50 54 -123.5t16 -220.5z" />
<glyph unicode="&#x106;" d="M139 0zM1073 53q-77 -41 -158 -61.5t-172 -20.5q-287 0 -445.5 203t-158.5 571q0 366 159.5 570.5t444.5 204.5q91 0 172 -20.5t158 -61.5v-207q-74 61 -159 93t-171 32q-197 0 -295 -152t-98 -459q0 -306 98 -458t295 -152q88 0 172.5 32t157.5 93v-207zM762 1899h186 l-229 -264h-154z" />
<glyph unicode="&#x107;" d="M195 0zM1061 57q-74 -43 -152.5 -64.5t-160.5 -21.5q-260 0 -406.5 156t-146.5 432t146.5 432t406.5 156q81 0 158 -21t155 -65v-193q-73 65 -146.5 94t-166.5 29q-173 0 -266 -112t-93 -320q0 -207 93.5 -319.5t265.5 -112.5q96 0 172 29.5t141 91.5v-191zM846 1638h198 l-325 -376h-154z" />
<glyph unicode="&#x108;" d="M139 0zM648 1908h189l211 -266h-140l-166 178l-165 -178h-140zM1073 53q-77 -41 -158 -61.5t-172 -20.5q-287 0 -445.5 203t-158.5 571q0 366 159.5 570.5t444.5 204.5q91 0 172 -20.5t158 -61.5v-207q-74 61 -159 93t-171 32q-197 0 -295 -152t-98 -459q0 -306 98 -458 t295 -152q88 0 172.5 32t157.5 93v-207z" />
<glyph unicode="&#x109;" d="M195 0zM633 1638h147l246 -376h-139l-181 245l-180 -245h-139zM1061 57q-74 -43 -152.5 -64.5t-160.5 -21.5q-260 0 -406.5 156t-146.5 432t146.5 432t406.5 156q81 0 158 -21t155 -65v-193q-73 65 -146.5 94t-166.5 29q-173 0 -266 -112t-93 -320q0 -207 93.5 -319.5 t265.5 -112.5q96 0 172 29.5t141 91.5v-191z" />
<glyph unicode="&#x10a;" d="M139 0zM588 1872h205v-205h-205v205zM1073 53q-77 -41 -158 -61.5t-172 -20.5q-287 0 -445.5 203t-158.5 571q0 366 159.5 570.5t444.5 204.5q91 0 172 -20.5t158 -61.5v-207q-74 61 -159 93t-171 32q-197 0 -295 -152t-98 -459q0 -306 98 -458t295 -152q88 0 172.5 32 t157.5 93v-207z" />
<glyph unicode="&#x10b;" d="M195 0zM588 1552h205v-204h-205v204zM1061 57q-74 -43 -152.5 -64.5t-160.5 -21.5q-260 0 -406.5 156t-146.5 432t146.5 432t406.5 156q81 0 158 -21t155 -65v-193q-73 65 -146.5 94t-166.5 29q-173 0 -266 -112t-93 -320q0 -207 93.5 -319.5t265.5 -112.5q96 0 172 29.5 t141 91.5v-191z" />
<glyph unicode="&#x10c;" d="M139 0zM1073 53q-77 -41 -158 -61.5t-172 -20.5q-287 0 -445.5 203t-158.5 571q0 366 159.5 570.5t444.5 204.5q91 0 172 -20.5t158 -61.5v-207q-74 61 -159 93t-171 32q-197 0 -295 -152t-98 -459q0 -306 98 -458t295 -152q88 0 172.5 32t157.5 93v-207zM612 1635 l-211 266h140l165 -178l166 178h140l-211 -266h-189z" />
<glyph unicode="&#x10d;" d="M195 0zM1061 57q-74 -43 -152.5 -64.5t-160.5 -21.5q-260 0 -406.5 156t-146.5 432t146.5 432t406.5 156q81 0 158 -21t155 -65v-193q-73 65 -146.5 94t-166.5 29q-173 0 -266 -112t-93 -320q0 -207 93.5 -319.5t265.5 -112.5q96 0 172 29.5t141 91.5v-191zM633 1262 l-246 376h139l180 -245l181 245h139l-246 -376h-147z" />
<glyph unicode="&#x10e;" d="M137 0zM436 166q255 0 356 125.5t101 453.5q0 331 -100.5 456.5t-356.5 125.5h-96v-1161h96zM440 1493q342 0 504 -182t162 -566q0 -382 -162 -563.5t-504 -181.5h-303v1493h303zM444 1629l-211 266h140l165 -178l166 178h140l-211 -266h-189z" />
<glyph unicode="&#x10f;" d="M123 0zM1114 1557h198l-113 -376h-154zM858 977v579h184v-1556h-184v141q-46 -83 -122.5 -126.5t-176.5 -43.5q-203 0 -319.5 157.5t-116.5 434.5q0 273 117 428.5t319 155.5q101 0 178 -43.5t121 -126.5zM317 559q0 -214 68 -323t201 -109t202.5 110t69.5 322 q0 213 -69.5 322.5t-202.5 109.5t-201 -109t-68 -323z" />
<glyph unicode="&#x110;" d="M8 0zM436 1493q342 0 504 -182t162 -566q0 -382 -162.5 -563.5t-503.5 -181.5h-303v709h-125v149h125v635h303zM436 166q255 0 356 125.5t101 453.5q0 331 -100.5 456.5t-356.5 125.5h-96v-469h264v-149h-264v-543h96z" />
<glyph unicode="&#x111;" d="M858 977v309h-305v121h305v149h184v-149h191v-121h-191v-1286h-184v141q-46 -83 -122.5 -126.5t-176.5 -43.5q-203 0 -319.5 157.5t-116.5 434.5q0 273 117 428.5t319 155.5q101 0 178 -43.5t121 -126.5zM317 559q0 -214 68 -323t201 -109t202.5 110t69.5 322 q0 213 -69.5 322.5t-202.5 109.5t-201 -109t-68 -323z" />
<glyph unicode="&#x112;" d="M197 0zM335 1840h598v-148h-598v148zM197 1493h886v-170h-684v-442h654v-170h-654v-541h703v-170h-905v1493z" />
<glyph unicode="&#x113;" d="M123 0zM352 1526h598v-148h-598v148zM1112 606v-90h-797v-6q0 -183 95.5 -283t269.5 -100q88 0 184 28t205 85v-183q-105 -43 -202.5 -64.5t-188.5 -21.5q-261 0 -408 156.5t-147 431.5q0 268 144 428t384 160q214 0 337.5 -145t123.5 -396zM928 660q-4 162 -76.5 246.5 t-208.5 84.5q-133 0 -219 -88t-102 -244z" />
<glyph unicode="&#x114;" d="M197 0zM321 1901h119q12 -54 62 -82.5t132 -28.5q83 0 131.5 27.5t63.5 83.5h119q-11 -119 -90.5 -180.5t-223.5 -61.5t-223 61t-90 181zM197 1493h886v-170h-684v-442h654v-170h-654v-541h703v-170h-905v1493z" />
<glyph unicode="&#x115;" d="M123 0zM317 1608h119q11 -76 59 -113t135 -37q85 0 133 37t62 113h119q-11 -143 -90 -215t-224 -72q-144 0 -223 72t-90 215zM1112 606v-90h-797v-6q0 -183 95.5 -283t269.5 -100q88 0 184 28t205 85v-183q-105 -43 -202.5 -64.5t-188.5 -21.5q-261 0 -408 156.5 t-147 431.5q0 268 144 428t384 160q214 0 337.5 -145t123.5 -396zM928 660q-4 162 -76.5 246.5t-208.5 84.5q-133 0 -219 -88t-102 -244z" />
<glyph unicode="&#x116;" d="M197 0zM531 1872h205v-205h-205v205zM197 1493h886v-170h-684v-442h654v-170h-654v-541h703v-170h-905v1493z" />
<glyph unicode="&#x117;" d="M123 0zM527 1552h205v-204h-205v204zM1112 606v-90h-797v-6q0 -183 95.5 -283t269.5 -100q88 0 184 28t205 85v-183q-105 -43 -202.5 -64.5t-188.5 -21.5q-261 0 -408 156.5t-147 431.5q0 268 144 428t384 160q214 0 337.5 -145t123.5 -396zM928 660q-4 162 -76.5 246.5 t-208.5 84.5q-133 0 -219 -88t-102 -244z" />
<glyph unicode="&#x118;" d="M197 0zM833 0h119q-45 -61 -66.5 -105t-21.5 -75q0 -46 27.5 -69t81.5 -23q32 0 63 7.5t62 22.5v-133q-38 -10 -72 -15t-64 -5q-122 0 -179.5 43.5t-57.5 136.5q0 48 26.5 100.5t81.5 114.5zM197 1493h886v-170h-684v-442h654v-170h-654v-541h703v-170h-905v1493z" />
<glyph unicode="&#x119;" d="M123 0zM774 0h119q-45 -61 -66.5 -105t-21.5 -75q0 -46 27.5 -69t81.5 -23q32 0 63 7.5t62 22.5v-133q-38 -10 -72 -15t-64 -5q-122 0 -179.5 43.5t-57.5 136.5q0 48 26.5 100.5t81.5 114.5zM1112 606v-90h-797v-6q0 -183 95.5 -283t269.5 -100q88 0 184 28t205 85v-183 q-105 -43 -202.5 -64.5t-188.5 -21.5q-261 0 -408 156.5t-147 431.5q0 268 144 428t384 160q214 0 337.5 -145t123.5 -396zM928 660q-4 162 -76.5 246.5t-208.5 84.5q-133 0 -219 -88t-102 -244z" />
<glyph unicode="&#x11a;" d="M197 0zM197 1493h886v-170h-684v-442h654v-170h-654v-541h703v-170h-905v1493zM558 1629l-211 266h140l165 -178l166 178h140l-211 -266h-189z" />
<glyph unicode="&#x11b;" d="M123 0zM1112 606v-90h-797v-6q0 -183 95.5 -283t269.5 -100q88 0 184 28t205 85v-183q-105 -43 -202.5 -64.5t-188.5 -21.5q-261 0 -408 156.5t-147 431.5q0 268 144 428t384 160q214 0 337.5 -145t123.5 -396zM928 660q-4 162 -76.5 246.5t-208.5 84.5q-133 0 -219 -88 t-102 -244zM578 1257l-246 376h139l180 -245l181 245h139l-246 -376h-147z" />
<glyph unicode="&#x11c;" d="M102 0zM522 1901h189l211 -266h-140l-166 178l-165 -178h-140zM1104 123q-81 -75 -182.5 -113.5t-219.5 -38.5q-284 0 -442 203.5t-158 570.5q0 366 160 570.5t445 204.5q94 0 180 -26.5t166 -80.5v-207q-81 77 -166 113.5t-180 36.5q-197 0 -295.5 -152.5t-98.5 -458.5 q0 -311 95.5 -460.5t293.5 -149.5q67 0 117.5 15.5t91.5 48.5v401h-217v166h410v-643z" />
<glyph unicode="&#x11d;" d="M123 0zM543 1638h147l246 -376h-139l-181 245l-180 -245h-139zM858 569q0 207 -67.5 314.5t-196.5 107.5q-135 0 -206 -107.5t-71 -314.5t71.5 -315.5t207.5 -108.5q127 0 194.5 109t67.5 315zM1042 72q0 -252 -119 -382t-350 -130q-76 0 -159 14t-166 41v182 q98 -46 178 -68t147 -22q149 0 217 81t68 257v8v125q-44 -94 -120 -140t-185 -46q-196 0 -313 157t-117 420q0 264 117 421t313 157q108 0 183 -43t122 -133v145h184v-1044z" />
<glyph unicode="&#x11e;" d="M102 0zM353 1901h119q12 -54 62 -82.5t132 -28.5q83 0 131.5 27.5t63.5 83.5h119q-11 -119 -90.5 -180.5t-223.5 -61.5t-223 61t-90 181zM1104 123q-81 -75 -182.5 -113.5t-219.5 -38.5q-284 0 -442 203.5t-158 570.5q0 366 160 570.5t445 204.5q94 0 180 -26.5 t166 -80.5v-207q-81 77 -166 113.5t-180 36.5q-197 0 -295.5 -152.5t-98.5 -458.5q0 -311 95.5 -460.5t293.5 -149.5q67 0 117.5 15.5t91.5 48.5v401h-217v166h410v-643z" />
<glyph unicode="&#x11f;" d="M123 0zM303 1608h119q11 -76 59 -113t135 -37q85 0 133 37t62 113h119q-11 -143 -90 -215t-224 -72q-144 0 -223 72t-90 215zM858 569q0 207 -67.5 314.5t-196.5 107.5q-135 0 -206 -107.5t-71 -314.5t71.5 -315.5t207.5 -108.5q127 0 194.5 109t67.5 315zM1042 72 q0 -252 -119 -382t-350 -130q-76 0 -159 14t-166 41v182q98 -46 178 -68t147 -22q149 0 217 81t68 257v8v125q-44 -94 -120 -140t-185 -46q-196 0 -313 157t-117 420q0 264 117 421t313 157q108 0 183 -43t122 -133v145h184v-1044z" />
<glyph unicode="&#x120;" d="M102 0zM563 1872h205v-205h-205v205zM1104 123q-81 -75 -182.5 -113.5t-219.5 -38.5q-284 0 -442 203.5t-158 570.5q0 366 160 570.5t445 204.5q94 0 180 -26.5t166 -80.5v-207q-81 77 -166 113.5t-180 36.5q-197 0 -295.5 -152.5t-98.5 -458.5q0 -311 95.5 -460.5 t293.5 -149.5q67 0 117.5 15.5t91.5 48.5v401h-217v166h410v-643z" />
<glyph unicode="&#x121;" d="M123 0zM513 1552h205v-204h-205v204zM858 569q0 207 -67.5 314.5t-196.5 107.5q-135 0 -206 -107.5t-71 -314.5t71.5 -315.5t207.5 -108.5q127 0 194.5 109t67.5 315zM1042 72q0 -252 -119 -382t-350 -130q-76 0 -159 14t-166 41v182q98 -46 178 -68t147 -22 q149 0 217 81t68 257v8v125q-44 -94 -120 -140t-185 -46q-196 0 -313 157t-117 420q0 264 117 421t313 157q108 0 183 -43t122 -133v145h184v-1044z" />
<glyph unicode="&#x122;" d="M102 0zM630 -228h239l-187 -345h-146zM1104 123q-81 -75 -182.5 -113.5t-219.5 -38.5q-284 0 -442 203.5t-158 570.5q0 366 160 570.5t445 204.5q94 0 180 -26.5t166 -80.5v-207q-81 77 -166 113.5t-180 36.5q-197 0 -295.5 -152.5t-98.5 -458.5q0 -311 95.5 -460.5 t293.5 -149.5q67 0 117.5 15.5t91.5 48.5v401h-217v166h410v-643z" />
<glyph unicode="&#x123;" d="M123 0zM725 1269h-239l187 345h146zM858 569q0 207 -67.5 314.5t-196.5 107.5q-135 0 -206 -107.5t-71 -314.5t71.5 -315.5t207.5 -108.5q127 0 194.5 109t67.5 315zM1042 72q0 -252 -119 -382t-350 -130q-76 0 -159 14t-166 41v182q98 -46 178 -68t147 -22q149 0 217 81 t68 257v8v125q-44 -94 -120 -140t-185 -46q-196 0 -313 157t-117 420q0 264 117 421t313 157q108 0 183 -43t122 -133v145h184v-1044z" />
<glyph unicode="&#x124;" d="M137 0zM522 1901h189l211 -266h-140l-166 178l-165 -178h-140zM137 1493h203v-612h553v612h203v-1493h-203v711h-553v-711h-203v1493z" />
<glyph unicode="&#x125;" d="M195 0zM522 1901h189l211 -266h-140l-166 178l-165 -178h-140zM1051 694v-694h-185v694q0 151 -53 222t-166 71q-129 0 -198.5 -91.5t-69.5 -262.5v-633h-184v1556h184v-604q49 96 133 145.5t199 49.5q171 0 255.5 -112.5t84.5 -340.5z" />
<glyph unicode="&#x126;" d="M137 1493h202v-224h554v224h202v-224h135v-164h-135v-1105h-202v711h-554v-711h-202v1105h-134v164h134v224zM339 1105v-224h554v224h-554z" />
<glyph unicode="&#x127;" d="M1051 694v-694h-185v694q0 151 -53 222t-166 71q-129 0 -198.5 -91.5t-69.5 -262.5v-633h-184v1270h-125v164h125v122h184v-122h353v-164h-353v-318q49 96 133 145.5t199 49.5q171 0 255.5 -112.5t84.5 -340.5z" />
<glyph unicode="&#x128;" d="M201 0zM612 1710l-57 33q-25 14 -40.5 19.5t-27.5 5.5q-35 0 -55 -25t-20 -70v-6h-125q0 101 51.5 160t136.5 59q36 0 66.5 -8t79.5 -35l57 -30q22 -13 39.5 -19t32.5 -6q31 0 51 25.5t20 66.5v6h125q-2 -100 -53 -159.5t-135 -59.5q-34 0 -64 8t-82 35zM201 1493h829 v-170h-313v-1153h313v-170h-829v170h313v1153h-313v170z" />
<glyph unicode="&#x129;" d="M178 0zM612 1370l-57 55q-21 20 -37.5 29.5t-30.5 9.5q-38 0 -56 -37t-20 -118h-124q1 134 52 208t142 74q39 0 71 -14t69 -47l57 -55q21 -20 37.5 -29.5t29.5 -9.5q39 0 57 37t19 118h125q-1 -134 -52 -208t-142 -74q-39 0 -71 14t-69 47zM256 1120h471v-977h365v-143 h-914v143h365v834h-287v143z" />
<glyph unicode="&#x12a;" d="M201 0zM317 1840h598v-148h-598v148zM201 1493h829v-170h-313v-1153h313v-170h-829v170h313v1153h-313v170z" />
<glyph unicode="&#x12b;" d="M178 0zM317 1526h598v-148h-598v148zM256 1120h471v-977h365v-143h-914v143h365v834h-287v143z" />
<glyph unicode="&#x12c;" d="M201 0zM303 1901h119q12 -54 62 -82.5t132 -28.5q83 0 131.5 27.5t63.5 83.5h119q-11 -119 -90.5 -180.5t-223.5 -61.5t-223 61t-90 181zM201 1493h829v-170h-313v-1153h313v-170h-829v170h313v1153h-313v170z" />
<glyph unicode="&#x12d;" d="M178 0zM303 1608h119q11 -76 59 -113t135 -37q85 0 133 37t62 113h119q-11 -143 -90 -215t-224 -72q-144 0 -223 72t-90 215zM256 1120h471v-977h365v-143h-914v143h365v834h-287v143z" />
<glyph unicode="&#x12e;" d="M201 0zM201 1493h829v-170h-313v-1153h313v-170h-829v170h313v1153h-313v170zM598 0h119q-45 -61 -66.5 -105t-21.5 -75q0 -46 27.5 -69t81.5 -23q32 0 63 7.5t62 22.5v-133q-38 -10 -72 -15t-64 -5q-122 0 -179.5 43.5t-57.5 136.5q0 48 26.5 100.5t81.5 114.5z" />
<glyph unicode="&#x12f;" d="M178 0zM256 1120h471v-977h365v-143h-914v143h365v834h-287v143zM543 1556h184v-233h-184v233zM608 0h119q-45 -61 -66.5 -105t-21.5 -75q0 -46 27.5 -69t81.5 -23q32 0 63 7.5t62 22.5v-133q-38 -10 -72 -15t-64 -5q-122 0 -179.5 43.5t-57.5 136.5q0 48 26.5 100.5 t81.5 114.5z" />
<glyph unicode="&#x130;" d="M201 0zM513 1872h205v-205h-205v205zM201 1493h829v-170h-313v-1153h313v-170h-829v170h313v1153h-313v170z" />
<glyph unicode="&#x131;" d="M256 1120h471v-977h365v-143h-914v143h365v834h-287v143z" />
<glyph unicode="&#x132;" d="M652 64v236q61 -81 127 -121.5t137 -40.5q97 0 136 74q38 75 38 278v836h-259v170h397v-1006q0 -282 -72 -399t-240 -117q-65 0 -130 22q-64 22 -134 68zM-1 1493h605v-170h-228v-1153h228v-170h-605v170h228v1153h-228v170z" />
<glyph unicode="&#x133;" d="M978 -31v997h-317v143h501v-1140q0 -195 -89.5 -300.5t-254.5 -105.5h-254v156h234q90 0 135 62.5t45 187.5zM978 1545h184v-233h-184v233zM59 1120h386v-977h300v-143h-750v143h299v834h-235v143zM294 1556h151v-233h-151v233z" />
<glyph unicode="&#x134;" d="M109 0zM570 1901h189l211 -266h-140l-166 178l-165 -178h-140zM109 61v236q91 -81 188 -121.5t201 -40.5q143 0 199.5 74.5t56.5 277.5v836h-381v170h583v-1006q0 -282 -105.5 -399t-352.5 -117q-96 0 -191 22t-198 68z" />
<glyph unicode="&#x135;" d="M186 0zM543 1638h147l246 -376h-139l-181 245l-180 -245h-139zM600 -20v997h-317v143h501v-1140q0 -195 -89.5 -300.5t-254.5 -105.5h-254v156h234q90 0 135 62.5t45 187.5z" />
<glyph unicode="&#x136;" d="M137 0zM608 -199h239l-187 -345h-146zM137 1493h203v-664l631 664h237l-581 -610l598 -883h-244l-487 748l-154 -164v-584h-203v1493z" />
<glyph unicode="&#x137;" d="M236 0zM646 -199h239l-187 -345h-146zM236 1556h190v-901l483 465h224l-441 -422l510 -698h-225l-414 578l-137 -129v-449h-190v1556z" />
<glyph unicode="&#x138;" d="M236 1120h190v-465l483 465h224l-441 -422l510 -698h-225l-414 578l-137 -129v-449h-190v1120z" />
<glyph unicode="&#x139;" d="M200 0zM397 1900h186l-229 -264h-154zM215 1493h203v-1323h721v-170h-924v1493z" />
<glyph unicode="&#x13a;" d="M160 0zM577 1900h186l-229 -264h-154zM639 406q0 -124 45.5 -187t134.5 -63h215v-156h-233q-165 0 -255.5 106t-90.5 300v1017h-295v144h479v-1161z" />
<glyph unicode="&#x13b;" d="M215 0zM604 -199h239l-187 -345h-146zM215 1493h203v-1323h721v-170h-924v1493z" />
<glyph unicode="&#x13c;" d="M160 0zM497 -199h239l-187 -345h-146zM639 406q0 -124 45.5 -187t134.5 -63h215v-156h-233q-165 0 -255.5 106t-90.5 300v1017h-295v144h479v-1161z" />
<glyph unicode="&#x13d;" d="M215 0zM718 1491h198l-113 -376h-154zM215 1493h203v-1323h721v-170h-924v1493z" />
<glyph unicode="&#x13e;" d="M160 0zM960 1567h198l-113 -376h-154zM639 406q0 -124 45.5 -187t134.5 -63h215v-156h-233q-165 0 -255.5 106t-90.5 300v1017h-295v144h479v-1161z" />
<glyph unicode="&#x13f;" d="M215 0zM841 998h252v-305h-252v305zM215 1493h203v-1323h721v-170h-924v1493z" />
<glyph unicode="&#x140;" d="M160 0zM960 1008h252v-305h-252v305zM639 406q0 -124 45.5 -187t134.5 -63h215v-156h-233q-165 0 -255.5 106t-90.5 300v1017h-295v144h479v-1161z" />
<glyph unicode="&#x141;" d="M215 1493h203v-616l315 219l78 -111l-393 -274v-541h721v-170h-924v571l-145 -106l-80 110l225 158v760z" />
<glyph unicode="&#x142;" d="M639 406q0 -124 45.5 -187t134.5 -63h215v-156h-233q-165 0 -255.5 106t-90.5 300v292l-299 -209l-80 111l379 264v559h-295v144h479v-578l315 219l80 -110l-395 -275v-417z" />
<glyph unicode="&#x143;" d="M139 0zM705 1899h186l-229 -264h-154zM139 1493h256l504 -1229v1229h195v-1493h-256l-504 1229v-1229h-195v1493z" />
<glyph unicode="&#x144;" d="M195 0zM776 1645h198l-325 -376h-154zM1051 694v-694h-185v694q0 151 -53 222t-166 71q-129 0 -198.5 -91.5t-69.5 -262.5v-633h-184v1120h184v-168q49 96 133 145.5t199 49.5q171 0 255.5 -112.5t84.5 -340.5z" />
<glyph unicode="&#x145;" d="M139 0zM544 -199h239l-187 -345h-146zM139 1493h256l504 -1229v1229h195v-1493h-256l-504 1229v-1229h-195v1493z" />
<glyph unicode="&#x146;" d="M195 0zM550 -199h239l-187 -345h-146zM1051 694v-694h-185v694q0 151 -53 222t-166 71q-129 0 -198.5 -91.5t-69.5 -262.5v-633h-184v1120h184v-168q49 96 133 145.5t199 49.5q171 0 255.5 -112.5t84.5 -340.5z" />
<glyph unicode="&#x147;" d="M139 0zM139 1493h256l504 -1229v1229h195v-1493h-256l-504 1229v-1229h-195v1493zM564 1635l-211 266h140l165 -178l166 178h140l-211 -266h-189z" />
<glyph unicode="&#x148;" d="M195 0zM1051 694v-694h-185v694q0 151 -53 222t-166 71q-129 0 -198.5 -91.5t-69.5 -262.5v-633h-184v1120h184v-168q49 96 133 145.5t199 49.5q171 0 255.5 -112.5t84.5 -340.5zM531 1262l-246 376h139l180 -245l181 245h139l-246 -376h-147z" />
<glyph unicode="&#x149;" d="M24 0zM1174 694v-694h-185v694q0 151 -53 222t-166 71q-129 0 -198.5 -91.5t-69.5 -262.5v-633h-184v1120h184v-168q49 96 133 145.5t199 49.5q171 0 255.5 -112.5t84.5 -340.5zM24 967zM122 1556h252v-206l-197 -383h-153l98 383v206z" />
<glyph unicode="&#x14a;" d="M1085 999v-1019q0 -195 -89 -300q-90 -106 -255 -106h-205v156h167q90 0 135 62q44 62 44 208v1009q0 180 -58 264.5t-182 84.5q-141 0 -217 -109t-76 -312v-937h-202v1493h202v-198q54 111 146 169t218 58q187 0 279.5 -130.5t92.5 -392.5z" />
<glyph unicode="&#x14b;" d="M1051 694v-714q0 -195 -89 -300q-90 -106 -255 -106h-205v156h185q90 0 135 62q44 62 44 188v714q0 151 -53 222t-166 71q-129 0 -199 -91q-69 -92 -69 -263v-633h-184v1120h184v-168q49 96 133 146q84 49 199 49q171 0 255 -113q85 -112 85 -340z" />
<glyph unicode="&#x14c;" d="M117 0zM317 1840h598v-148h-598v148zM905 745q0 329 -67.5 470t-221.5 141q-153 0 -220.5 -141t-67.5 -470q0 -328 67.5 -469t220.5 -141q154 0 221.5 140.5t67.5 469.5zM1116 745q0 -390 -123.5 -582t-376.5 -192t-376 191t-123 583q0 391 123.5 583t375.5 192 q253 0 376.5 -192t123.5 -583z" />
<glyph unicode="&#x14d;" d="M137 0zM317 1526h598v-148h-598v148zM616 991q-140 0 -212 -109t-72 -323q0 -213 72 -322.5t212 -109.5q141 0 213 109.5t72 322.5q0 214 -72 323t-213 109zM616 1147q233 0 356.5 -151t123.5 -437q0 -287 -123 -437.5t-357 -150.5q-233 0 -356 150.5t-123 437.5 q0 286 123 437t356 151z" />
<glyph unicode="&#x14e;" d="M117 0zM303 1901h119q12 -54 62 -82.5t132 -28.5q83 0 131.5 27.5t63.5 83.5h119q-11 -119 -90.5 -180.5t-223.5 -61.5t-223 61t-90 181zM905 745q0 329 -67.5 470t-221.5 141q-153 0 -220.5 -141t-67.5 -470q0 -328 67.5 -469t220.5 -141q154 0 221.5 140.5t67.5 469.5z M1116 745q0 -390 -123.5 -582t-376.5 -192t-376 191t-123 583q0 391 123.5 583t375.5 192q253 0 376.5 -192t123.5 -583z" />
<glyph unicode="&#x14f;" d="M137 0zM303 1608h119q11 -76 59 -113t135 -37q85 0 133 37t62 113h119q-11 -143 -90 -215t-224 -72q-144 0 -223 72t-90 215zM616 991q-140 0 -212 -109t-72 -323q0 -213 72 -322.5t212 -109.5q141 0 213 109.5t72 322.5q0 214 -72 323t-213 109zM616 1147 q233 0 356.5 -151t123.5 -437q0 -287 -123 -437.5t-357 -150.5q-233 0 -356 150.5t-123 437.5q0 286 123 437t356 151z" />
<glyph unicode="&#x150;" d="M117 0zM860 1899h186l-229 -264h-154zM541 1899h186l-229 -264h-154zM905 745q0 329 -67.5 470t-221.5 141q-153 0 -220.5 -141t-67.5 -470q0 -328 67.5 -469t220.5 -141q154 0 221.5 140.5t67.5 469.5zM1116 745q0 -390 -123.5 -582t-376.5 -192t-376 191t-123 583 q0 391 123.5 583t375.5 192q253 0 376.5 -192t123.5 -583z" />
<glyph unicode="&#x151;" d="M137 0zM535 1638h170l-224 -376h-137zM868 1638h179l-248 -376h-135zM616 991q-140 0 -212 -109t-72 -323q0 -213 72 -322.5t212 -109.5q141 0 213 109.5t72 322.5q0 214 -72 323t-213 109zM616 1147q233 0 356.5 -151t123.5 -437q0 -287 -123 -437.5t-357 -150.5 q-233 0 -356 150.5t-123 437.5q0 286 123 437t356 151z" />
<glyph unicode="&#x152;" d="M1217 170v-170h-605q-295 0 -417.5 166.5t-122.5 578.5q0 417 122 582.5t418 165.5h594v-170h-358v-442h328v-170h-328v-541h369zM590 1323q-177 0 -246.5 -115t-69.5 -463q0 -346 69.5 -460.5t246.5 -114.5h61v1153h-61z" />
<glyph unicode="&#x153;" d="M1047 657q0 11 1 30t1 28q0 145 -40 212.5t-126 67.5q-87 0 -125.5 -68.5t-38.5 -226.5v-43h328zM373 123q102 0 143 84t41 323q0 291 -40 378t-144 87q-103 0 -143 -83.5t-40 -352.5t40 -352.5t143 -83.5zM1210 514h-491v-84q0 -163 49.5 -235t161.5 -72 q80 0 145.5 26.5t112.5 77.5v-172q-59 -43 -121.5 -63.5t-136.5 -20.5q-98 0 -171.5 33.5t-121.5 99.5q-52 -68 -116 -100.5t-148 -32.5q-189 0 -274 138t-85 450t85 450t274 138q89 0 153 -31t111 -96q37 62 102 94.5t152 32.5q175 0 247 -118.5t72 -424.5v-90z" />
<glyph unicode="&#x154;" d="M143 0zM597 1899h186l-229 -264h-154zM760 705q78 -20 133 -75.5t137 -221.5l203 -408h-217l-178 377q-77 161 -138.5 207.5t-160.5 46.5h-193v-631h-203v1493h416q246 0 377 -111t131 -321q0 -148 -80.5 -241.5t-226.5 -114.5zM346 1327v-530h221q145 0 216 65t71 199 q0 129 -75.5 197.5t-219.5 68.5h-213z" />
<glyph unicode="&#x155;" d="M362 0zM962 1645h198l-325 -376h-154zM1155 889q-59 46 -120 67t-134 21q-172 0 -263 -108t-91 -312v-557h-185v1120h185v-219q46 119 141.5 182.5t226.5 63.5q68 0 127 -17t113 -53v-188z" />
<glyph unicode="&#x156;" d="M143 0zM616 -199h239l-187 -345h-146zM760 705q78 -20 133 -75.5t137 -221.5l203 -408h-217l-178 377q-77 161 -138.5 207.5t-160.5 46.5h-193v-631h-203v1493h416q246 0 377 -111t131 -321q0 -148 -80.5 -241.5t-226.5 -114.5zM346 1327v-530h221q145 0 216 65t71 199 q0 129 -75.5 197.5t-219.5 68.5h-213z" />
<glyph unicode="&#x157;" d="M288 0zM382 -199h239l-187 -345h-146zM1155 889q-59 46 -120 67t-134 21q-172 0 -263 -108t-91 -312v-557h-185v1120h185v-219q46 119 141.5 182.5t226.5 63.5q68 0 127 -17t113 -53v-188z" />
<glyph unicode="&#x158;" d="M143 0zM760 705q78 -20 133 -75.5t137 -221.5l203 -408h-217l-178 377q-77 161 -138.5 207.5t-160.5 46.5h-193v-631h-203v1493h416q246 0 377 -111t131 -321q0 -148 -80.5 -241.5t-226.5 -114.5zM346 1327v-530h221q145 0 216 65t71 199q0 129 -75.5 197.5t-219.5 68.5 h-213zM462 1629l-211 266h140l165 -178l166 178h140l-211 -266h-189z" />
<glyph unicode="&#x159;" d="M362 0zM1155 889q-59 46 -120 67t-134 21q-172 0 -263 -108t-91 -312v-557h-185v1120h185v-219q46 119 141.5 182.5t226.5 63.5q68 0 127 -17t113 -53v-188zM633 1262l-246 376h139l180 -245l181 245h139l-246 -376h-147z" />
<glyph unicode="&#x15a;" d="M139 0zM697 1899h186l-229 -264h-154zM1012 1442v-205q-92 59 -184.5 89t-186.5 30q-143 0 -226 -66.5t-83 -179.5q0 -99 54.5 -151t203.5 -87l106 -24q210 -49 306 -154t96 -286q0 -213 -132 -325t-384 -112q-105 0 -211 22.5t-213 67.5v215q115 -73 217.5 -107 t206.5 -34q153 0 238 68.5t85 191.5q0 112 -58.5 171t-203.5 91l-108 25q-208 47 -302 142t-94 255q0 200 134.5 320.5t357.5 120.5q86 0 181 -19.5t200 -58.5z" />
<glyph unicode="&#x15b;" d="M213 0zM782 1645h198l-325 -376h-154zM973 1081v-180q-79 46 -159 69t-163 23q-125 0 -186.5 -40.5t-61.5 -123.5q0 -75 46 -112t229 -72l74 -14q137 -26 207.5 -104t70.5 -203q0 -166 -118 -259.5t-328 -93.5q-83 0 -174 17.5t-197 52.5v190q103 -53 197 -79.5 t178 -26.5q122 0 189 49.5t67 138.5q0 128 -245 177l-8 2l-69 14q-159 31 -232 104.5t-73 200.5q0 161 109 248.5t311 87.5q90 0 173 -16.5t163 -49.5z" />
<glyph unicode="&#x15c;" d="M139 0zM522 1901h189l211 -266h-140l-166 178l-165 -178h-140zM1012 1442v-205q-92 59 -184.5 89t-186.5 30q-143 0 -226 -66.5t-83 -179.5q0 -99 54.5 -151t203.5 -87l106 -24q210 -49 306 -154t96 -286q0 -213 -132 -325t-384 -112q-105 0 -211 22.5t-213 67.5v215 q115 -73 217.5 -107t206.5 -34q153 0 238 68.5t85 191.5q0 112 -58.5 171t-203.5 91l-108 25q-208 47 -302 142t-94 255q0 200 134.5 320.5t357.5 120.5q86 0 181 -19.5t200 -58.5z" />
<glyph unicode="&#x15d;" d="M213 0zM543 1638h147l246 -376h-139l-181 245l-180 -245h-139zM973 1081v-180q-79 46 -159 69t-163 23q-125 0 -186.5 -40.5t-61.5 -123.5q0 -75 46 -112t229 -72l74 -14q137 -26 207.5 -104t70.5 -203q0 -166 -118 -259.5t-328 -93.5q-83 0 -174 17.5t-197 52.5v190 q103 -53 197 -79.5t178 -26.5q122 0 189 49.5t67 138.5q0 128 -245 177l-8 2l-69 14q-159 31 -232 104.5t-73 200.5q0 161 109 248.5t311 87.5q90 0 173 -16.5t163 -49.5z" />
<glyph unicode="&#x15e;" d="M139 0zM700 0q56 -62 82.5 -114.5t26.5 -100.5q0 -89 -60 -134.5t-178 -45.5q-45 0 -88.5 6t-87.5 18v131q34 -17 71.5 -24.5t84.5 -7.5q58 0 88.5 24t30.5 70q0 30 -22 73.5t-66 104.5h118zM1012 1442v-205q-92 59 -184.5 89t-186.5 30q-143 0 -226 -66.5t-83 -179.5 q0 -99 54.5 -151t203.5 -87l106 -24q210 -49 306 -154t96 -286q0 -213 -132 -325t-384 -112q-105 0 -211 22.5t-213 67.5v215q115 -73 217.5 -107t206.5 -34q153 0 238 68.5t85 191.5q0 112 -58.5 171t-203.5 91l-108 25q-208 47 -302 142t-94 255q0 200 134.5 320.5 t357.5 120.5q86 0 181 -19.5t200 -58.5z" />
<glyph unicode="&#x15f;" d="M213 0zM700 0q56 -62 82.5 -114.5t26.5 -100.5q0 -89 -60 -134.5t-178 -45.5q-45 0 -88.5 6t-87.5 18v131q34 -17 71.5 -24.5t84.5 -7.5q58 0 88.5 24t30.5 70q0 30 -22 73.5t-66 104.5h118zM973 1081v-180q-79 46 -159 69t-163 23q-125 0 -186.5 -40.5t-61.5 -123.5 q0 -75 46 -112t229 -72l74 -14q137 -26 207.5 -104t70.5 -203q0 -166 -118 -259.5t-328 -93.5q-83 0 -174 17.5t-197 52.5v190q103 -53 197 -79.5t178 -26.5q122 0 189 49.5t67 138.5q0 128 -245 177l-8 2l-69 14q-159 31 -232 104.5t-73 200.5q0 161 109 248.5t311 87.5 q90 0 173 -16.5t163 -49.5z" />
<glyph unicode="&#x160;" d="M139 0zM1012 1442v-205q-92 59 -184.5 89t-186.5 30q-143 0 -226 -66.5t-83 -179.5q0 -99 54.5 -151t203.5 -87l106 -24q210 -49 306 -154t96 -286q0 -213 -132 -325t-384 -112q-105 0 -211 22.5t-213 67.5v215q115 -73 217.5 -107t206.5 -34q153 0 238 68.5t85 191.5 q0 112 -58.5 171t-203.5 91l-108 25q-208 47 -302 142t-94 255q0 200 134.5 320.5t357.5 120.5q86 0 181 -19.5t200 -58.5zM522 1635l-211 266h140l165 -178l166 178h140l-211 -266h-189z" />
<glyph unicode="&#x161;" d="M213 0zM973 1081v-180q-79 46 -159 69t-163 23q-125 0 -186.5 -40.5t-61.5 -123.5q0 -75 46 -112t229 -72l74 -14q137 -26 207.5 -104t70.5 -203q0 -166 -118 -259.5t-328 -93.5q-83 0 -174 17.5t-197 52.5v190q103 -53 197 -79.5t178 -26.5q122 0 189 49.5t67 138.5 q0 128 -245 177l-8 2l-69 14q-159 31 -232 104.5t-73 200.5q0 161 109 248.5t311 87.5q90 0 173 -16.5t163 -49.5zM543 1262l-246 376h139l180 -245l181 245h139l-246 -376h-147z" />
<glyph unicode="&#x162;" d="M47 0zM700 0q56 -62 82.5 -114.5t26.5 -100.5q0 -89 -60 -134.5t-178 -45.5q-45 0 -88.5 6t-87.5 18v131q34 -17 71.5 -24.5t84.5 -7.5q58 0 88.5 24t30.5 70q0 30 -22 73.5t-66 104.5h118zM47 1493h1139v-170h-467v-1323h-203v1323h-469v170z" />
<glyph unicode="&#x163;" d="M131 0zM821 0q56 -62 82.5 -114.5t26.5 -100.5q0 -89 -60 -134.5t-178 -45.5q-45 0 -88.5 6t-87.5 18v131q34 -17 71.5 -24.5t84.5 -7.5q58 0 88.5 24t30.5 70q0 30 -22 73.5t-66 104.5h118zM614 1438v-318h418v-143h-418v-608q0 -124 47 -173t164 -49h207v-147h-225 q-207 0 -292 83t-85 286v608h-299v143h299v318h184z" />
<glyph unicode="&#x164;" d="M47 0zM47 1493h1139v-170h-467v-1323h-203v1323h-469v170zM528 1635l-211 266h140l165 -178l166 178h140l-211 -266h-189z" />
<glyph unicode="&#x165;" d="M131 0zM614 1438v-318h418v-143h-418v-608q0 -124 47 -173t164 -49h207v-147h-225q-207 0 -292 83t-85 286v608h-299v143h299v318h184zM820 1662h198l-113 -376h-154z" />
<glyph unicode="&#x166;" d="M47 1493h1139v-170h-467v-576h265v-170h-265v-577h-203v577h-265v170h265v576h-469v170z" />
<glyph unicode="&#x167;" d="M614 1438v-318h418v-143h-418v-233h229v-142h-229v-233q0 -124 47 -173t164 -49h207v-147h-225q-207 0 -292 83t-85 286v233h-229v142h229v233h-299v143h299v318h184z" />
<glyph unicode="&#x168;" d="M147 0zM612 1710l-57 33q-25 14 -40.5 19.5t-27.5 5.5q-35 0 -55 -25t-20 -70v-6h-125q0 101 51.5 160t136.5 59q36 0 66.5 -8t79.5 -35l57 -30q22 -13 39.5 -19t32.5 -6q31 0 51 25.5t20 66.5v6h125q-2 -100 -53 -159.5t-135 -59.5q-34 0 -64 8t-82 35zM147 573v920h203 v-1012q0 -109 6 -155.5t21 -71.5q32 -59 92.5 -89t146.5 -30q87 0 147 30t93 89q15 25 21 71t6 154v1014h202v-920q0 -229 -28.5 -325.5t-98.5 -159.5q-66 -59 -151 -88t-191 -29q-105 0 -190 29t-152 88q-69 62 -98 160.5t-29 324.5z" />
<glyph unicode="&#x169;" d="M195 0zM612 1370l-57 55q-21 20 -37.5 29.5t-30.5 9.5q-38 0 -56 -37t-20 -118h-124q1 134 52 208t142 74q39 0 71 -14t69 -47l57 -55q21 -20 37.5 -29.5t29.5 -9.5q39 0 57 37t19 118h125q-1 -134 -52 -208t-142 -74q-39 0 -71 14t-69 47zM195 424v694h184v-694 q0 -151 53.5 -222t165.5 -71q130 0 199 91.5t69 262.5v633h185v-1118h-185v168q-49 -97 -133.5 -147t-197.5 -50q-172 0 -256 112.5t-84 340.5z" />
<glyph unicode="&#x16a;" d="M147 0zM317 1840h598v-148h-598v148zM147 573v920h203v-1012q0 -109 6 -155.5t21 -71.5q32 -59 92.5 -89t146.5 -30q87 0 147 30t93 89q15 25 21 71t6 154v1014h202v-920q0 -229 -28.5 -325.5t-98.5 -159.5q-66 -59 -151 -88t-191 -29q-105 0 -190 29t-152 88 q-69 62 -98 160.5t-29 324.5z" />
<glyph unicode="&#x16b;" d="M195 0zM317 1526h598v-148h-598v148zM195 424v694h184v-694q0 -151 53.5 -222t165.5 -71q130 0 199 91.5t69 262.5v633h185v-1118h-185v168q-49 -97 -133.5 -147t-197.5 -50q-172 0 -256 112.5t-84 340.5z" />
<glyph unicode="&#x16c;" d="M147 0zM303 1901h119q12 -54 62 -82.5t132 -28.5q83 0 131.5 27.5t63.5 83.5h119q-11 -119 -90.5 -180.5t-223.5 -61.5t-223 61t-90 181zM147 573v920h203v-1012q0 -109 6 -155.5t21 -71.5q32 -59 92.5 -89t146.5 -30q87 0 147 30t93 89q15 25 21 71t6 154v1014h202v-920 q0 -229 -28.5 -325.5t-98.5 -159.5q-66 -59 -151 -88t-191 -29q-105 0 -190 29t-152 88q-69 62 -98 160.5t-29 324.5z" />
<glyph unicode="&#x16d;" d="M195 0zM303 1608h119q11 -76 59 -113t135 -37q85 0 133 37t62 113h119q-11 -143 -90 -215t-224 -72q-144 0 -223 72t-90 215zM195 424v694h184v-694q0 -151 53.5 -222t165.5 -71q130 0 199 91.5t69 262.5v633h185v-1118h-185v168q-49 -97 -133.5 -147t-197.5 -50 q-172 0 -256 112.5t-84 340.5z" />
<glyph unicode="&#x16e;" d="M147 0zM147 573v920h203v-1012q0 -109 6 -155.5t21 -71.5q32 -59 92.5 -89t146.5 -30q87 0 147 30t93 89q15 25 21 71t6 154v1014h202v-920q0 -229 -28.5 -325.5t-98.5 -159.5q-66 -59 -151 -88t-191 -29q-105 0 -190 29t-152 88q-69 62 -98 160.5t-29 324.5zM901 1859 q0 -115 -79.5 -195t-195.5 -80q-115 0 -194.5 80t-79.5 195t79.5 194.5t194.5 79.5q116 0 195.5 -79.5t79.5 -194.5zM778 1859q0 63 -44 107t-108 44t-107.5 -43.5t-43.5 -107.5q0 -65 43.5 -108.5t107.5 -43.5t108 44t44 108z" />
<glyph unicode="&#x16f;" d="M195 0zM195 424v694h184v-694q0 -151 53.5 -222t165.5 -71q130 0 199 91.5t69 262.5v633h185v-1118h-185v168q-49 -97 -133.5 -147t-197.5 -50q-172 0 -256 112.5t-84 340.5zM906 1479q0 -115 -79.5 -195t-195.5 -80q-115 0 -194.5 80t-79.5 195t79.5 194.5t194.5 79.5 q116 0 195.5 -79.5t79.5 -194.5zM783 1479q0 63 -44 107t-108 44t-107.5 -43.5t-43.5 -107.5q0 -65 43.5 -108.5t107.5 -43.5t108 44t44 108z" />
<glyph unicode="&#x170;" d="M147 0zM860 1899h186l-229 -264h-154zM541 1899h186l-229 -264h-154zM147 573v920h203v-1012q0 -109 6 -155.5t21 -71.5q32 -59 92.5 -89t146.5 -30q87 0 147 30t93 89q15 25 21 71t6 154v1014h202v-920q0 -229 -28.5 -325.5t-98.5 -159.5q-66 -59 -151 -88t-191 -29 q-105 0 -190 29t-152 88q-69 62 -98 160.5t-29 324.5z" />
<glyph unicode="&#x171;" d="M195 0zM535 1638h170l-224 -376h-137zM868 1638h179l-248 -376h-135zM195 424v694h184v-694q0 -151 53.5 -222t165.5 -71q130 0 199 91.5t69 262.5v633h185v-1118h-185v168q-49 -97 -133.5 -147t-197.5 -50q-172 0 -256 112.5t-84 340.5z" />
<glyph unicode="&#x172;" d="M147 0zM147 573v920h203v-1012q0 -109 6 -155.5t21 -71.5q32 -59 92.5 -89t146.5 -30q87 0 147 30t93 89q15 25 21 71t6 154v1014h202v-920q0 -229 -28.5 -325.5t-98.5 -159.5q-66 -59 -151 -88t-191 -29q-105 0 -190 29t-152 88q-69 62 -98 160.5t-29 324.5zM556 -16 h119q-45 -61 -66.5 -105t-21.5 -75q0 -46 27.5 -69t81.5 -23q32 0 63 7.5t62 22.5v-133q-38 -10 -72 -15t-64 -5q-122 0 -179.5 43.5t-57.5 136.5q0 48 26.5 100.5t81.5 114.5z" />
<glyph unicode="&#x173;" d="M195 0zM195 424v694h184v-694q0 -151 53.5 -222t165.5 -71q130 0 199 91.5t69 262.5v633h185v-1118h-185v168q-49 -97 -133.5 -147t-197.5 -50q-172 0 -256 112.5t-84 340.5zM935 0h119q-45 -61 -66.5 -105t-21.5 -75q0 -46 27.5 -69t81.5 -23q32 0 63 7.5t62 22.5v-133 q-38 -10 -72 -15t-64 -5q-122 0 -179.5 43.5t-57.5 136.5q0 48 26.5 100.5t81.5 114.5z" />
<glyph unicode="&#x174;" d="M0 0zM522 1908h189l211 -266h-140l-166 178l-165 -178h-140zM0 1493h197l143 -1212l170 802h211l172 -804l143 1214h197l-223 -1493h-191l-203 887l-202 -887h-191z" />
<glyph unicode="&#x175;" d="M0 0zM543 1645h147l246 -376h-139l-181 245l-180 -245h-139zM0 1120h182l195 -905l160 578h157l162 -578l195 905h182l-262 -1120h-176l-179 614l-178 -614h-176z" />
<glyph unicode="&#x176;" d="M37 0zM522 1908h189l211 -266h-140l-166 178l-165 -178h-140zM37 1493h215l364 -659l363 659h217l-479 -823v-670h-203v670z" />
<glyph unicode="&#x177;" d="M104 0zM555 1645h147l246 -376h-139l-181 245l-180 -245h-139zM858 360q-46 -117 -117 -308q-99 -264 -133 -322q-46 -78 -115 -117t-161 -39h-148v154h109q81 0 127 47t117 243l-433 1102h195l332 -876l327 876h195z" />
<glyph unicode="&#x178;" d="M37 0zM37 1493h215l364 -659l363 659h217l-479 -823v-670h-203v670zM319 1870h203v-203h-203v203zM711 1870h202v-203h-202v203z" />
<glyph unicode="&#x179;" d="M156 0zM699 1899h186l-229 -264h-154zM178 1493h969v-154l-780 -1169h802v-170h-1013v154l759 1169h-737v170z" />
<glyph unicode="&#x17a;" d="M203 0zM842 1645h198l-325 -376h-154zM227 1122h813v-168l-643 -804h643v-150h-837v170l643 805h-619v147z" />
<glyph unicode="&#x17b;" d="M156 0zM563 1872h205v-205h-205v205zM178 1493h969v-154l-780 -1169h802v-170h-1013v154l759 1169h-737v170z" />
<glyph unicode="&#x17c;" d="M203 0zM513 1552h205v-204h-205v204zM227 1122h813v-168l-643 -804h643v-150h-837v170l643 805h-619v147z" />
<glyph unicode="&#x17d;" d="M156 0zM178 1493h969v-154l-780 -1169h802v-170h-1013v154l759 1169h-737v170zM522 1635l-211 266h140l165 -178l166 178h140l-211 -266h-189z" />
<glyph unicode="&#x17e;" d="M203 0zM227 1122h813v-168l-643 -804h643v-150h-837v170l643 805h-619v147zM543 1262l-246 376h139l180 -245l181 245h139l-246 -376h-147z" />
<glyph unicode="&#x17f;" d="M678 1219v-1219h-184v977h-299v143h299v78q0 184 84.5 271t263.5 87h221v-153h-209q-99 0 -137.5 -40.5t-38.5 -143.5z" />
<glyph unicode="&#x180;" d="M377 977q44 82 121.5 126t179.5 44q202 0 318 -155.5t116 -428.5q0 -277 -116.5 -434.5t-319.5 -157.5q-100 0 -176.5 43.5t-122.5 126.5v-141h-184v1270h-123v164h123v122h184v-122h2h353v-164h-353h-2v-293zM918 559q0 214 -68 323t-201 109q-134 0 -203 -109.5 t-69 -322.5q0 -212 69 -322t203 -110q133 0 201 109t68 323z" />
<glyph unicode="&#x181;" d="M540 713v-547h120q176 0 251 61.5t75 202.5q0 146 -79 214.5t-247 68.5h-120zM540 1327v-450h116q146 0 211.5 56t65.5 181q0 113 -64.5 163t-212.5 50h-116zM338 1493h322q229 0 353 -99t124 -280q0 -137 -65.5 -216t-196.5 -99q147 -22 230.5 -125.5t83.5 -263.5 q0 -203 -133 -306.5t-396 -103.5h-322v1327q-62 0 -112 -43.5t-50 -155.5v-49h-156v70q0 159 84.5 251.5t233.5 92.5z" />
<glyph unicode="&#x182;" d="M166 0zM369 713v-547h239q176 0 251 61.5t75 202.5q0 146 -79 214.5t-247 68.5h-239zM1068 1327h-699v-450h235q379 -15 480 -206q53 -100 53 -261q0 -203 -133 -306q-133 -104 -396 -104h-442v1493h902v-166z" />
<glyph unicode="&#x183;" d="M377 977q44 82 121.5 126t179.5 44q202 0 318 -155.5t116 -428.5q0 -277 -116.5 -434.5t-319.5 -157.5q-100 0 -176.5 43.5t-122.5 126.5v-141h-184v1556h752v-184h-568v-395zM918 559q0 214 -68 323t-201 109q-134 0 -203 -109.5t-69 -322.5q0 -212 69 -322t203 -110 q133 0 201 109t68 323z" />
<glyph unicode="&#x184;" d="M417 713v-547h239q176 0 251 62q75 61 75 202q0 146 -79 214q-79 69 -247 69h-239zM417 877h235q379 -15 480 -206q53 -100 53 -261q0 -203 -133 -306q-133 -104 -396 -104h-442v948l-166 228l369 317v-616z" />
<glyph unicode="&#x185;" d="M978 559q0 214 -68 323t-200 109q-134 0 -204 -109q-68 -110 -68 -323q0 -212 68 -322q70 -110 204 -110q132 0 200 109t68 323zM438 977q44 82 121 126t179 44q202 0 318 -155q116 -156 116 -429q0 -277 -116 -435q-116 -157 -320 -157q-100 0 -176 43q-76 44 -122 127 v-141h-184v948l-194 228l378 380v-579z" />
<glyph unicode="&#x186;" d="M139 1438q77 41 158 61.5t172 20.5q285 0 444.5 -204.5t159.5 -570.5q0 -368 -158.5 -571t-445.5 -203q-91 0 -172 20.5t-158 61.5v207q73 -61 157.5 -93t172.5 -32q197 0 295 152t98 458q0 307 -98 459t-295 152q-86 0 -171 -32t-159 -93v207z" />
<glyph unicode="&#x187;" d="M994 53q-77 -41 -158 -61.5t-172 -20.5q-287 0 -445.5 203t-158.5 571q0 298 159.5 502.5t444.5 204.5q90 0 169 -20q23 51 65 101q90 106 255 106h20v-156q-84 0 -135 -62q-44 -53 -44 -188v-70q-74 61 -159 93t-171 32q-197 0 -295 -152t-98 -391q0 -306 98 -458 t295 -152q88 0 172.5 32t157.5 93v-207z" />
<glyph unicode="&#x188;" d="M960 57q-74 -43 -152.5 -64.5t-160.5 -21.5q-260 0 -406.5 156t-146.5 432t146.5 432t406.5 156q70 0 137 -16q19 114 80 185q90 106 255 106h20v-156q-90 0 -135 -62q-44 -62 -44 -188v-148q-73 65 -146.5 94t-166.5 29q-173 0 -266 -112t-93 -320q0 -207 93.5 -319.5 t265.5 -112.5q96 0 172 29.5t141 91.5v-191z" />
<glyph unicode="&#x189;" d="M8 0zM436 1493q342 0 504 -182t162 -566q0 -382 -162.5 -563.5t-503.5 -181.5h-303v709h-125v149h125v635h303zM436 166q255 0 356 125.5t101 453.5q0 331 -100.5 456.5t-356.5 125.5h-96v-469h264v-149h-264v-543h96z" />
<glyph unicode="&#x18a;" d="M326 1493h233q342 0 504 -182t162 -566q0 -382 -162 -563.5t-504 -181.5h-233v1327q-54 0 -114 -47q-48 -38 -48 -152v-49h-156v70q0 181 96 262.5t222 81.5zM555 166q255 0 356 125.5t101 453.5q0 331 -100.5 456.5t-356.5 125.5h-26v-1161h26z" />
<glyph unicode="&#x18b;" d="M899 713h-239q-168 0 -247 -68.5t-79 -214.5q0 -141 75 -202.5t251 -61.5h239v547zM200 1327v166h902v-1493h-442q-263 0 -396 103.5t-133 306.5q0 161 53 261q101 191 480 206h235v450h-699z" />
<glyph unicode="&#x18c;" d="M351 559q0 -214 68 -323t201 -109q134 0 203 110t69 322q0 213 -69 322.5t-203 109.5q-133 0 -201 -109t-68 -323zM324 1372v184h752v-1556h-184v141q-46 -83 -122.5 -126.5t-176.5 -43.5q-203 0 -319.5 157.5t-116.5 434.5q0 273 116 428.5t318 155.5q102 0 179.5 -44 t121.5 -126v395h-568z" />
<glyph unicode="&#x18d;" d="M616 127q140 0 212 109t72 323q0 213 -72 322.5t-212 109.5q-141 0 -213 -109.5t-72 -322.5q0 -214 72 -323t213 -109zM898 51q19 -9 59 -49q62 -61 62 -153q0 -136 -118 -218q-119 -82 -316 -82q-102 0 -152 12l-151 36v173q66 -24 136 -39q75 -15 148 -15h19l32 1 q73 2 133 45l39 28q27 24 27 70q0 33 -13 52q-17 24 -58 45q-24 13 -129 14q-235 3 -356 151q-124 151 -124 437q0 287 123 437.5t357 150.5q233 0 356 -150.5t123 -437.5q0 -286 -123 -437q-31 -38 -74 -71z" />
<glyph unicode="&#x18e;" d="M1102 1493v-1493h-905v170h703v541h-654v170h654v442h-684v170h886z" />
<glyph unicode="&#x18f;" d="M117 745v83h787v8q0 241 -69 380.5t-219 139.5q-86 0 -171 -32t-159 -93v207q77 41 158 61.5t172 20.5q253 0 376.5 -192t123.5 -583q0 -390 -123.5 -582t-376.5 -192t-376 191t-123 583zM332 644q0 -248 70 -378.5t218 -130.5t211 127.5t72 381.5h-571z" />
<glyph unicode="&#x190;" d="M440 799q-131 34 -199.5 115t-68.5 204q0 181 130.5 291.5t348.5 110.5q73 0 167.5 -16t215.5 -48v-186q-104 40 -199 60t-184 20q-134 0 -206.5 -61.5t-72.5 -176.5q0 -109 78 -170t217 -61h154v-166h-154q-152 0 -241 -76.5t-89 -206.5q0 -141 89 -216t255 -75 q98 0 197 26t201 79v-201q-103 -36 -210 -55t-210 -19q-245 0 -383.5 117.5t-138.5 323.5q0 149 78 248.5t225 138.5z" />
<glyph unicode="&#x191;" d="M380 1493h790v-170h-587v-440h524v-170h-524v-733q0 -195 -89 -300q-90 -106 -255 -106h-176v156h138q90 0 135 62q44 62 44 188v1513z" />
<glyph unicode="&#x192;" d="M1063 1556v-153h-209h-2q-97 0 -136 -41q-38 -40 -38 -143v-99h385v-143h-385v-997q0 -214 -81 -310q-82 -96 -263 -96h-70v156h49q105 0 143 48q38 49 38 202l-2 997h-297v143h296v78q0 180 87 272q37 39 97 60q70 26 167 26h9h3h209z" />
<glyph unicode="&#x193;" d="M1054 123q-82 -75 -183 -113.5t-219 -38.5q-284 0 -442 203.5t-158 570.5q0 366 160 570.5t444 204.5q94 0 180 -26l34 -12q15 26 36 51q90 106 256 106h19v-156q-84 0 -135 -62q-43 -54 -44 -188v-27q-80 77 -165 113.5t-181 36.5q-196 0 -295 -152.5t-99 -458.5 q0 -311 96 -460.5t294 -149.5q66 0 117 15.5t91 48.5v401h-216v166h410v-643z" />
<glyph unicode="&#x194;" d="M730 650q324 -449 324 -844q0 -236 -416 -236q-440 0 -440 236q0 367 294 851l-464 696h216l372 -555l372 555h218zM600 495q-198 -301 -198 -625q0 -138 216 -138q204 0 204 138q0 325 -222 625z" />
<glyph unicode="&#x195;" d="M755 694v-288h-1q0 -153 34 -202q38 -52 93 -48q19 2 73 75q47 66 47 222v411h167v-411q0 -228 -76 -340.5t-230 -112.5q-127 0 -201 96q-73 96 -73 310v288q0 151 -47.5 222t-113.5 71q-71 0 -133.5 -91.5t-62.5 -262.5v-633h-166v1556h166v-604q77 134 94 146 q75 49 160 49q118 0 194 -112.5t76 -340.5z" />
<glyph unicode="&#x196;" d="M514 1323h-313v170h829v-170h-313v-902q0 -127 44 -188q45 -62 135 -62h185l1 -171h-217q-170 0 -262 106q-89 102 -89 300v917z" />
<glyph unicode="&#x197;" d="M201 1493h829v-170h-313v-576h2h265v-170h-265h-2v-407h313v-170h-829v170h313v407h-263v170h263v576h-313v170z" />
<glyph unicode="&#x198;" d="M647 1180q161 170 266 182q21 3 41 3q126 0 218 -99l47 -51l-106 -114l-33 37q-45 51 -105 51q-17 0 -36 -4q-66 -15 -175 -130l-164 -172l598 -883h-244l-487 748l-154 -164v-584h-203v1493h203v-664z" />
<glyph unicode="&#x199;" d="M236 1002v148q0 195 89 300q90 106 255 106h205v-156h-185q-90 0 -135 -62q-44 -62 -44 -188h5v-495l483 465h224l-441 -422l510 -698h-225l-414 578l-137 -129v-449h-190v1002z" />
<glyph unicode="&#x19a;" d="M639 406q0 -124 45.5 -187t134.5 -63h215v-156h-233q-165 0 -255.5 106t-90.5 300v196h-228v142h228v679h-295v144h479v-823h9h221v-142h-221h-9v-196z" />
<glyph unicode="&#x19b;" d="M579 1213l348 242l80 -110l-371 -258l497 -1087h-191l-321 704l-330 -704h-191l425 913l-34 74l-362 -251l-80 111l385 266l-174 380h191z" />
<glyph unicode="&#x19c;" d="M568 114q-34 -72 -86.5 -106.5t-126.5 -34.5q-135 0 -190.5 104.5t-55.5 393.5v1022h168v-1014q0 -237 26.5 -294.5t96.5 -57.5q80 0 109.5 61.5t29.5 290.5v1014h168v-1014q0 -240 28.5 -296t102.5 -56q73 0 101.5 61.5t28.5 290.5v1014h167v-1493h-167v96 q-33 -60 -82.5 -91.5t-112.5 -31.5q-76 0 -126.5 35t-78.5 106z" />
<glyph unicode="&#x19d;" d="M190 1493h230l454 -1229v1229h175v-1493h-230l-453 1229v-1249q0 -195 -81 -300q-81 -106 -229 -106h-27v156q81 0 121 62q40 61 40 188v1513z" />
<glyph unicode="&#x19e;" d="M1051 694v-1124h-185v1124q0 151 -53 222t-166 71q-129 0 -198.5 -91.5t-69.5 -262.5v-633h-184v1120h184v-168q49 96 133 145.5t199 49.5q171 0 255.5 -112.5t84.5 -340.5z" />
<glyph unicode="&#x19f;" d="M1116 745q0 -390 -123.5 -582t-376.5 -192t-376 191t-123 583q0 391 123.5 583t375.5 192q253 0 376.5 -192t123.5 -583zM904 828q-8 264 -66 387q-68 141 -222 141q-153 0 -220 -141q-59 -123 -67 -387h575zM330 644q9 -250 66 -368q67 -141 220 -141q154 0 222 141 q56 117 65 368h-573z" />
<glyph unicode="&#x1a0;" d="M6 0zM796 1292v119q61 -45 105 -66.5t75 -21.5q46 0 69 27.5t23 81.5q0 32 -7.5 63t-22.5 62h133q10 -38 15 -72t5 -64q0 -122 -43.5 -179.5t-136.5 -57.5q-48 0 -100.5 26.5t-114.5 81.5zM794 745q0 329 -67.5 470t-221.5 141q-153 0 -220.5 -141t-67.5 -470 q0 -328 67.5 -469t220.5 -141q154 0 221.5 140.5t67.5 469.5zM1005 745q0 -390 -123.5 -582t-376.5 -192t-376 191t-123 583q0 391 123.5 583t375.5 192q253 0 376.5 -192t123.5 -583z" />
<glyph unicode="&#x1a1;" d="M32 0zM807 872v119q61 -45 105 -66.5t75 -21.5q46 0 69 27.5t23 81.5q0 32 -7.5 63t-22.5 62h133q10 -38 15 -72t5 -64q0 -122 -43.5 -179.5t-136.5 -57.5q-48 0 -100.5 26.5t-114.5 81.5zM511 991q-140 0 -212 -109t-72 -323q0 -213 72 -322.5t212 -109.5 q141 0 213 109.5t72 322.5q0 214 -72 323t-213 109zM511 1147q233 0 356.5 -151t123.5 -437q0 -287 -123 -437.5t-357 -150.5q-233 0 -356 150.5t-123 437.5q0 286 123 437t356 151z" />
<glyph unicode="&#x1a2;" d="M45 745q0 672 334 761q53 14 115 14q206 0 317 -158l147 131h230v-1493h-175v1229l-180 -160v-906q-111 -192 -339 -192t-338.5 191t-110.5 583zM693 1215q-61 141 -199 141t-198.5 -141t-60.5 -470q0 -328 60.5 -469t198.5 -141t199 141v939z" />
<glyph unicode="&#x1a3;" d="M86 559q0 436 250 551q80 37 181 37q210 0 321 -151v-43l126 110h231v-1493h-176v1229l-181 -157v-520q-110 -151 -321 -151q-234 0 -345 188q-86 146 -86 400zM262 559q0 -395 215 -429q19 -3 40 -3q127 0 192 109v646q-65 109 -192 109q-206 0 -246 -286 q-9 -66 -9 -146z" />
<glyph unicode="&#x1a4;" d="M1177 1047q0 -348 -312 -425q-86 -22 -196 -22h-93v-600h-202v1327q-54 0 -114 -47q-48 -38 -48 -152v-49h-156v70q0 181 96 263q96 81 222 81h295q407 0 489 -292q19 -69 19 -154zM669 766q211 0 275 157q22 56 22 124q0 133 -78 206.5t-219 73.5h-93v-561h93z" />
<glyph unicode="&#x1a5;" d="M375 559q0 -375 209 -425q29 -7 63 -7q133 0 200.5 109t67.5 323q0 418 -251 432h-17q-214 0 -260 -273q-12 -70 -12 -159zM375 977q91 164 285 170h14q203 0 318.5 -157t115.5 -435q0 -273 -116 -428.5t-318 -155.5q-102 0 -178.5 43.5t-120.5 126.5v-567h-185v1452 q0 302 203 381q63 25 141 25h205v-156h-185q-169 0 -178 -221q-1 -14 -1 -29v-49z" />
<glyph unicode="&#x1a6;" d="M760 441q78 -20 133 -75q54 -55 137 -222l203 -408h-217l-178 377q-77 161 -138.5 207.5t-160.5 46.5h-193v-367h-203v1493h203v-264h213q246 0 377 -111t131 -321q0 -148 -80.5 -241.5t-226.5 -114.5zM346 1063v-530h221q145 0 216 65t71 199q0 129 -75.5 197.5 t-219.5 68.5h-213z" />
<glyph unicode="&#x1a7;" d="M225 1442q105 39 200 58.5t181 19.5q223 0 357.5 -120.5t134.5 -320.5q0 -160 -94 -255t-302 -142l-108 -25q-145 -32 -203.5 -91t-58.5 -171q0 -123 85 -191.5t238 -68.5q104 0 206.5 34t217.5 107v-215q-107 -45 -213 -67.5t-211 -22.5q-252 0 -384 112t-132 325 q0 181 96 286t306 154l106 24q149 35 203.5 87t54.5 151q0 113 -83 179.5t-226 66.5q-94 0 -186.5 -30t-184.5 -89v205z" />
<glyph unicode="&#x1a8;" d="M270 1081q80 33 163 49.5t173 16.5q202 0 311 -87.5t109 -248.5q0 -127 -73 -200.5t-232 -104.5l-69 -14l-8 -2q-245 -49 -245 -177q0 -89 67 -138.5t189 -49.5q84 0 178 26.5t197 79.5v-190q-106 -35 -197 -52.5t-174 -17.5q-210 0 -328 93.5t-118 259.5q0 125 70.5 203 t207.5 104l74 14q183 35 229 72t46 112q0 83 -61.5 123.5t-186.5 40.5q-83 0 -163 -23t-159 -69v180z" />
<glyph unicode="&#x1a9;" d="M120 0zM786 747l-455 -577h802v-170h-1013v170l454 577l-454 576v170h1013v-170h-802z" />
<glyph unicode="&#x1aa;" d="M568 1284q-7 45 -25 68q-33 48 -143 48q-124 0 -127 -65q-3 -51 116 -51h179zM765 1130l-2 -1219q0 -103 39 -144q37 -40 137 -40h176v-153h-174q-195 0 -276 86q-87 92 -87 272v1198h-190q-270 0 -270 210q0 216 303 216q181 0 263 -96q53 -64 71 -175h191v-155h-181z " />
<glyph unicode="&#x1ab;" d="M614 1438v-318h418v-143h-418v-608q0 -124 47 -173t164 -49h207v-147v-20q0 -195 -89 -300q-90 -106 -255 -106h-205v156h185q90 0 135 62q44 62 44 188v20h-40q-207 0 -292 83t-85 286v608h-299v143h299v318h184z" />
<glyph unicode="&#x1ac;" d="M453 1327q-131 8 -201 -47q-49 -38 -49 -152v-49h-156v70q0 181 96 262.5t310 81.5h733v-170h-467v-1323h-203v1323z" />
<glyph unicode="&#x1ad;" d="M614 1120h418v-143h-418v-608q0 -124 47 -173t164 -49h207v-147h-225q-207 0 -292 83t-85 286v608h-299v143h298v30q0 195 89 300q90 106 255 106h205v-156h-185q-90 0 -135 -62q-44 -62 -44 -188v-30z" />
<glyph unicode="&#x1ae;" d="M47 1493h1139v-170h-467v-1343q0 -126 44 -188q45 -62 135 -62h185v-156h-223q-165 0 -255 106q-89 105 -89 300v1343h-469v170z" />
<glyph unicode="&#x1af;" d="M9 0zM829 1296v119q61 -45 105 -66.5t75 -21.5q46 0 69 27.5t23 81.5q0 32 -7.5 63t-22.5 62h133q10 -38 15 -72t5 -64q0 -122 -43.5 -179.5t-136.5 -57.5q-48 0 -100.5 26.5t-114.5 81.5zM9 573v920h203v-1012q0 -109 6 -155.5t21 -71.5q32 -59 92.5 -89t146.5 -30 q87 0 147 30t93 89q15 25 21 71t6 154v1014h202v-920q0 -229 -28.5 -325.5t-98.5 -159.5q-66 -59 -151 -88t-191 -29q-105 0 -190 29t-152 88q-69 62 -98 160.5t-29 324.5z" />
<glyph unicode="&#x1b0;" d="M39 0zM799 872v119q61 -45 105 -66.5t75 -21.5q46 0 69 27.5t23 81.5q0 32 -7.5 63t-22.5 62h133q10 -38 15 -72t5 -64q0 -122 -43.5 -179.5t-136.5 -57.5q-48 0 -100.5 26.5t-114.5 81.5zM39 424v694h184v-694q0 -151 53.5 -222t165.5 -71q130 0 199 91.5t69 262.5v633 h185v-1118h-185v168q-49 -97 -133.5 -147t-197.5 -50q-172 0 -256 112.5t-84 340.5z" />
<glyph unicode="&#x1b1;" d="M1159 1460v-172h-245q123 -134 178 -278t55 -332q0 -311 -144 -494.5t-384 -183.5q-242 0 -386.5 183t-144.5 495q0 188 55.5 332.5t178.5 277.5h-248v172h463v-172q-120 -76 -187 -240.5t-67 -386.5q0 -230 90 -362.5t244 -132.5t243.5 132.5t89.5 362.5 q0 222 -67 386.5t-187 240.5v172h463z" />
<glyph unicode="&#x1b2;" d="M506 0q-170 0 -262 106q-90 102 -90 300v1087h204v-1072q0 -126 44 -188t134 -62q154 0 244 132.5t90 362.5q0 222 -67 386.5t-187 240.5h218q122 -134 177 -278t55 -332q0 -311 -144 -495q-147 -188 -416 -188z" />
<glyph unicode="&#x1b3;" d="M875 1140l-246 -470v-670h-183v670l-429 823h193l328 -659l199 401q99 200 208 242q46 18 91 18q80 0 155 -57l25 -19l-71 -134l-10 9q-34 31 -74 31q-28 0 -59 -16q-51 -24 -127 -169z" />
<glyph unicode="&#x1b4;" d="M622 -104q-81 -203 -152 -261q-74 -61 -198 -61h-147v154h108q76 0 118 36t93 170l33 84l-453 1102h195l350 -876l279 699q50 126 131 167q43 22 94 22q49 0 104 -20l48 -17l-53 -147l-28 10q-28 11 -50 11q-43 0 -59 -41z" />
<glyph unicode="&#x1b5;" d="M178 1493h969v-154l-395 -592h232v-170h-265h-80l-272 -407h802v-170h-1013v154l275 423h-180v170h290l374 576h-737v170z" />
<glyph unicode="&#x1b6;" d="M222 1122h813v-168l-270 -338h312v-164h-354h-89l-242 -302h643v-150h-837v170l225 282h-267v164h398l287 359h-619v147z" />
<glyph unicode="&#x1b7;" d="M228 435q0 -143 100 -218q99 -75 288.5 -75t289.5 75t100 218q0 134 -92 207q-94 74 -258 74h-174v166l370 441h-738v170h970v-168l-376 -441q104 0 234 -56q98 -43 184 -151q80 -104 80 -242q0 -221 -152 -342t-432 -121q-292 0 -444 121t-152 342h202z" />
<glyph unicode="&#x1b8;" d="M1006 435h200q0 -221 -152 -342t-444 -121q-280 0 -432 121t-152 342q0 138 82 242q85 108 184 151q129 56 234 56l-376 441v168h968v-170h-736l370 -441v-166h-174q-166 0 -258 -74q-92 -73 -92 -207q0 -143 100 -218q99 -75 288.5 -75t289.5 75t100 218z" />
<glyph unicode="&#x1b9;" d="M624 476l-411 476v168h874v-147h-667l430 -499v-166h-174q-165 0 -258 -74q-92 -75 -92 -207q0 -143 100 -218q99 -75 289 -75q109 0 209 25t184 74v-195q-106 -37 -206 -56q-99 -18 -193 -18q-280 0 -432 121t-152 342q0 138 81 242q86 109 184 151q128 56 234 56z" />
<glyph unicode="&#x1ba;" d="M699 -274q84 0 161 21q79 21 160 65v-179q-87 -32 -167 -45q-86 -14 -183 -14q-480 0 -480 281q0 238 406 291q284 37 284 135q0 124 -235 124h-290l485 568h-667v147h874v-168l-354 -412q367 0 367 -229q0 -276 -464 -325q-226 -24 -226 -121q0 -139 329 -139z" />
<glyph unicode="&#x1bb;" d="M164 1421q208 99 399 99q219 0 352.5 -116.5t133.5 -305.5q0 -96 -45 -192q-34 -74 -100 -159h80v-170h-230l-56 -63l-325 -344h686v-170h-907v170l382 407h-283v170h434q105 130 135 214q22 60 22 122q0 185 -150 245q-57 22 -125 22q-181 0 -403 -133v204z" />
<glyph unicode="&#x1bc;" d="M616 142q316 0 377 199q13 43 13 94q0 134 -92 207q-94 74 -258 74h-441v777h924v-170h-721v-439h290q105 0 234 -56q99 -43 184 -151q80 -101 80 -242q0 -221 -152 -342t-432 -121q-430 0 -552 256q-44 91 -44 207h202q0 -181 158 -252q91 -41 230 -41z" />
<glyph unicode="&#x1bd;" d="M518 -266q311 0 374 195q15 45 15 98q0 134 -92 207q-93 74 -258 74h-300v812h752v-184h-568v-461l168 1q103 1 234 -56q99 -43 184 -151q81 -104 81 -242q0 -221 -152 -342t-432 -121q-187 0 -399 74v195q170 -99 393 -99z" />
<glyph unicode="&#x1be;" d="M845 439q0 114 -74 193q-89 95 -262 95h-62v271h-229v164h229v276h202v-276h231v-164h-231v-125q165 -29 273 -139q117 -119 117 -295q0 -185 -110 -311q-138 -157 -412 -157q-171 0 -323 70v172q156 -86 315 -86q179 0 278 114q57 65 58 198z" />
<glyph unicode="&#x1bf;" d="M310 -122v-304h-185v1546h185v-170q52 66 187 148q81 49 291 49q184 0 261 -112q78 -113 78 -266q0 -425 -817 -891zM310 60q626 400 626 649q0 133 -57 199q-56 65 -176 65q-220 0 -393 -239v-674z" />
<glyph unicode="&#x1c0;" d="M516 1493h202v-1493h-202v1493z" />
<glyph unicode="&#x1c1;" d="M314 0zM314 1493h202v-1493h-202v1493zM718 1493h202v-1493h-202v1493z" />
<glyph unicode="&#x1c2;" d="M516 1493h202v-404h350v-168h-350v-240h350v-170h-350v-511h-202v511h-352v170h352v240h-352v168h352v404z" />
<glyph unicode="&#x1c3;" d="M515 0zM515 1493h203v-655l-21 -357h-161l-21 357v655zM515 254h203v-254h-203v254z" />
<glyph unicode="&#x1cd;" d="M37 0zM616 1315l-213 -764h426zM494 1493h245l457 -1493h-209l-110 389h-523l-108 -389h-209zM522 1635l-211 266h140l165 -178l166 178h140l-211 -266h-189z" />
<glyph unicode="&#x1ce;" d="M133 0zM702 563h-61q-161 0 -242.5 -56.5t-81.5 -168.5q0 -101 61 -157t169 -56q152 0 239 105.5t88 291.5v41h-172zM1059 639v-639h-185v166q-59 -100 -148.5 -147.5t-217.5 -47.5q-171 0 -273 96.5t-102 258.5q0 187 125.5 284t368.5 97h247v29q-1 134 -68 194.5 t-214 60.5q-94 0 -190 -27t-187 -79v184q102 39 195.5 58.5t181.5 19.5q139 0 237.5 -41t159.5 -123q38 -50 54 -123.5t16 -220.5zM543 1262l-246 376h139l180 -245l181 245h139l-246 -376h-147z" />
<glyph unicode="&#x1cf;" d="M201 0zM201 1493h829v-170h-313v-1153h313v-170h-829v170h313v1153h-313v170zM522 1635l-211 266h140l165 -178l166 178h140l-211 -266h-189z" />
<glyph unicode="&#x1d0;" d="M178 0zM256 1120h471v-977h365v-143h-914v143h365v834h-287v143zM543 1262l-246 376h139l180 -245l181 245h139l-246 -376h-147z" />
<glyph unicode="&#x1d1;" d="M117 0zM905 745q0 329 -67.5 470t-221.5 141q-153 0 -220.5 -141t-67.5 -470q0 -328 67.5 -469t220.5 -141q154 0 221.5 140.5t67.5 469.5zM1116 745q0 -390 -123.5 -582t-376.5 -192t-376 191t-123 583q0 391 123.5 583t375.5 192q253 0 376.5 -192t123.5 -583z M522 1635l-211 266h140l165 -178l166 178h140l-211 -266h-189z" />
<glyph unicode="&#x1d2;" d="M137 0zM616 991q-140 0 -212 -109t-72 -323q0 -213 72 -322.5t212 -109.5q141 0 213 109.5t72 322.5q0 214 -72 323t-213 109zM616 1147q233 0 356.5 -151t123.5 -437q0 -287 -123 -437.5t-357 -150.5q-233 0 -356 150.5t-123 437.5q0 286 123 437t356 151zM543 1262 l-246 376h139l180 -245l181 245h139l-246 -376h-147z" />
<glyph unicode="&#x1d3;" d="M147 0zM147 573v920h203v-1012q0 -109 6 -155.5t21 -71.5q32 -59 92.5 -89t146.5 -30q87 0 147 30t93 89q15 25 21 71t6 154v1014h202v-920q0 -229 -28.5 -325.5t-98.5 -159.5q-66 -59 -151 -88t-191 -29q-105 0 -190 29t-152 88q-69 62 -98 160.5t-29 324.5zM522 1635 l-211 266h140l165 -178l166 178h140l-211 -266h-189z" />
<glyph unicode="&#x1d4;" d="M195 0zM195 424v694h184v-694q0 -151 53.5 -222t165.5 -71q130 0 199 91.5t69 262.5v633h185v-1118h-185v168q-49 -97 -133.5 -147t-197.5 -50q-172 0 -256 112.5t-84 340.5zM543 1262l-246 376h139l180 -245l181 245h139l-246 -376h-147z" />
<glyph unicode="&#x1d5;" d="M147 0zM319 1746h203v-203h-203v203zM711 1746h202v-203h-202v203zM147 573v920h203v-1012q0 -109 6 -155.5t21 -71.5q32 -59 92.5 -89t146.5 -30q87 0 147 30t93 89q15 25 21 71t6 154v1014h202v-920q0 -229 -28.5 -325.5t-98.5 -159.5q-66 -59 -151 -88t-191 -29 q-105 0 -190 29t-152 88q-69 62 -98 160.5t-29 324.5zM317 1804zM317 1952h598v-148h-598v148z" />
<glyph unicode="&#x1d6;" d="M195 0zM319 1350zM319 1552h203v-202h-203v202zM711 1552h202v-202h-202v202zM195 424v694h184v-694q0 -151 53.5 -222t165.5 -71q130 0 199 91.5t69 262.5v633h185v-1118h-185v168q-49 -97 -133.5 -147t-197.5 -50q-172 0 -256 112.5t-84 340.5zM317 1842h598v-148h-598 v148z" />
<glyph unicode="&#x1d7;" d="M147 0zM319 1746h203v-203h-203v203zM711 1746h202v-203h-202v203zM147 573v920h203v-1012q0 -109 6 -155.5t21 -71.5q32 -59 92.5 -89t146.5 -30q87 0 147 30t93 89q15 25 21 71t6 154v1014h202v-920q0 -229 -28.5 -325.5t-98.5 -159.5q-66 -59 -151 -88t-191 -29 q-105 0 -190 29t-152 88q-69 62 -98 160.5t-29 324.5zM672 2041h186l-229 -264h-154z" />
<glyph unicode="&#x1d8;" d="M195 0zM319 1350zM319 1552h203v-202h-203v202zM711 1552h202v-202h-202v202zM195 424v694h184v-694q0 -151 53.5 -222t165.5 -71q130 0 199 91.5t69 262.5v633h185v-1118h-185v168q-49 -97 -133.5 -147t-197.5 -50q-172 0 -256 112.5t-84 340.5zM475 1578zM756 1954h198 l-325 -376h-154z" />
<glyph unicode="&#x1d9;" d="M147 0zM319 1746h203v-203h-203v203zM711 1746h202v-203h-202v203zM147 573v920h203v-1012q0 -109 6 -155.5t21 -71.5q32 -59 92.5 -89t146.5 -30q87 0 147 30t93 89q15 25 21 71t6 154v1014h202v-920q0 -229 -28.5 -325.5t-98.5 -159.5q-66 -59 -151 -88t-191 -29 q-105 0 -190 29t-152 88q-69 62 -98 160.5t-29 324.5zM522 1777l-211 266h140l165 -178l166 178h140l-211 -266h-189z" />
<glyph unicode="&#x1da;" d="M195 0zM319 1350zM319 1552h203v-202h-203v202zM711 1552h202v-202h-202v202zM195 424v694h184v-694q0 -151 53.5 -222t165.5 -71q130 0 199 91.5t69 262.5v633h185v-1118h-185v168q-49 -97 -133.5 -147t-197.5 -50q-172 0 -256 112.5t-84 340.5zM297 1578zM543 1578 l-246 376h139l180 -245l181 245h139l-246 -376h-147z" />
<glyph unicode="&#x1db;" d="M147 0zM319 1746h203v-203h-203v203zM711 1746h202v-203h-202v203zM147 573v920h203v-1012q0 -109 6 -155.5t21 -71.5q32 -59 92.5 -89t146.5 -30q87 0 147 30t93 89q15 25 21 71t6 154v1014h202v-920q0 -229 -28.5 -325.5t-98.5 -159.5q-66 -59 -151 -88t-191 -29 q-105 0 -190 29t-152 88q-69 62 -98 160.5t-29 324.5zM561 2041l197 -264h-154l-227 264h184z" />
<glyph unicode="&#x1dc;" d="M195 0zM279 1578zM477 1954l281 -376h-154l-325 376h198zM195 0zM195 424v694h184v-694q0 -151 53.5 -222t165.5 -71q130 0 199 91.5t69 262.5v633h185v-1118h-185v168q-49 -97 -133.5 -147t-197.5 -50q-172 0 -256 112.5t-84 340.5zM319 1552h203v-202h-203v202z M711 1552h202v-202h-202v202z" />
<glyph unicode="&#x1dd;" d="M122 0zM122 512v90h797v6q0 183 -95.5 283t-269.5 100q-88 0 -184 -28t-205 -85v183q105 43 202.5 64.5t188.5 21.5q261 0 408 -156.5t147 -431.5q0 -268 -144 -428t-384 -160q-214 0 -337.5 145t-123.5 396zM306 459q0 -162 74.5 -247t210.5 -85q133 0 219 88t102 244 h-606z" />
<glyph unicode="&#x1de;" d="M37 0zM319 1746h203v-203h-203v203zM711 1746h202v-203h-202v203zM317 1804zM317 1952h598v-148h-598v148zM616 1315l-213 -764h426zM494 1493h245l457 -1493h-209l-110 389h-523l-108 -389h-209z" />
<glyph unicode="&#x1df;" d="M133 0zM317 1842h598v-148h-598v148zM133 0zM702 563h-61q-161 0 -242.5 -56.5t-81.5 -168.5q0 -101 61 -157t169 -56q152 0 239 105.5t88 291.5v41h-172zM1059 639v-639h-185v166q-59 -100 -148.5 -147.5t-217.5 -47.5q-171 0 -273 96.5t-102 258.5q0 187 125.5 284 t368.5 97h247v29q-1 134 -68 194.5t-214 60.5q-94 0 -190 -27t-187 -79v184q102 39 195.5 58.5t181.5 19.5q139 0 237.5 -41t159.5 -123q38 -50 54 -123.5t16 -220.5zM319 1552h203v-202h-203v202zM711 1552h202v-202h-202v202z" />
<glyph unicode="&#x1e0;" d="M37 0zM317 1804zM317 1952h598v-148h-598v148zM513 1748h205v-205h-205v205zM616 1315l-213 -764h426zM494 1493h245l457 -1493h-209l-110 389h-523l-108 -389h-209z" />
<glyph unicode="&#x1e1;" d="M133 0zM317 1842h598v-148h-598v148zM133 0zM513 1552h205v-204h-205v204zM702 563h-61q-161 0 -242.5 -56.5t-81.5 -168.5q0 -101 61 -157t169 -56q152 0 239 105.5t88 291.5v41h-172zM1059 639v-639h-185v166q-59 -100 -148.5 -147.5t-217.5 -47.5q-171 0 -273 96.5 t-102 258.5q0 187 125.5 284t368.5 97h247v29q-1 134 -68 194.5t-214 60.5q-94 0 -190 -27t-187 -79v184q102 39 195.5 58.5t181.5 19.5q139 0 237.5 -41t159.5 -123q38 -50 54 -123.5t16 -220.5z" />
<glyph unicode="&#x1e2;" d="M0 0zM487 1840h598v-148h-598v148zM1161 1493v-170h-338v-442h307v-170h-307v-541h357v-170h-543v383h-352l-101 -383h-184l410 1493h751zM530 1323l-202 -772h309v772h-107z" />
<glyph unicode="&#x1e3;" d="M41 0zM317 1526h598v-148h-598v148zM543 442v72h-49q-169 0 -229 -45t-60 -158q0 -89 44.5 -137.5t127.5 -48.5q92 0 129 66.5t37 250.5zM1036 657v52q0 151 -38.5 217.5t-125.5 66.5t-125 -68t-38 -225v-43h327zM1200 514h-491q-1 -15 -1.5 -32.5t-0.5 -51.5 q0 -161 50.5 -233t162.5 -72q79 0 143.5 25.5t114.5 76.5v-172q-55 -41 -121 -62.5t-137 -21.5q-110 0 -184.5 41t-106.5 119q-39 -80 -105.5 -120t-163.5 -40q-156 0 -237.5 86t-81.5 250q0 171 100 260.5t291 89.5h117v88q0 120 -49.5 184t-143.5 64q-56 0 -122 -21.5 t-128 -60.5v168q77 35 143 51.5t126 16.5q91 0 153 -31.5t99 -95.5q33 61 99 94t155 33q174 0 246.5 -118.5t72.5 -424.5v-90z" />
<glyph unicode="&#x1e6;" d="M102 0zM522 1635l-211 266h140l165 -178l166 178h140l-211 -266h-189zM1104 123q-81 -75 -182.5 -113.5t-219.5 -38.5q-284 0 -442 203.5t-158 570.5q0 366 160 570.5t445 204.5q94 0 180 -26.5t166 -80.5v-207q-81 77 -166 113.5t-180 36.5q-197 0 -295.5 -152.5 t-98.5 -458.5q0 -311 95.5 -460.5t293.5 -149.5q67 0 117.5 15.5t91.5 48.5v401h-217v166h410v-643z" />
<glyph unicode="&#x1e7;" d="M123 0zM543 1262l-246 376h139l180 -245l181 245h139l-246 -376h-147zM858 569q0 207 -67.5 314.5t-196.5 107.5q-135 0 -206 -107.5t-71 -314.5t71.5 -315.5t207.5 -108.5q127 0 194.5 109t67.5 315zM1042 72q0 -252 -119 -382t-350 -130q-76 0 -159 14t-166 41v182 q98 -46 178 -68t147 -22q149 0 217 81t68 257v8v125q-44 -94 -120 -140t-185 -46q-196 0 -313 157t-117 420q0 264 117 421t313 157q108 0 183 -43t122 -133v145h184v-1044z" />
<glyph unicode="&#x1e8;" d="M137 0zM522 1635l-211 266h140l165 -178l166 178h140l-211 -266h-189zM137 1493h203v-664l631 664h237l-581 -610l598 -883h-244l-487 748l-154 -164v-584h-203v1493z" />
<glyph unicode="&#x1e9;" d="M236 0zM522 1635l-211 266h140l165 -178l166 178h140l-211 -266h-189zM236 1556h190v-901l483 465h224l-441 -422l510 -698h-225l-414 578l-137 -129v-449h-190v1556z" />
<glyph unicode="&#x1ea;" d="M117 0zM556 -16h119q-45 -61 -66.5 -105t-21.5 -75q0 -46 27.5 -69t81.5 -23q32 0 63 7.5t62 22.5v-133q-38 -10 -72 -15t-64 -5q-122 0 -179.5 43.5t-57.5 136.5q0 48 26.5 100.5t81.5 114.5zM905 745q0 329 -67.5 470t-221.5 141q-153 0 -220.5 -141t-67.5 -470 q0 -328 67.5 -469t220.5 -141q154 0 221.5 140.5t67.5 469.5zM1116 745q0 -390 -123.5 -582t-376.5 -192t-376 191t-123 583q0 391 123.5 583t375.5 192q253 0 376.5 -192t123.5 -583z" />
<glyph unicode="&#x1eb;" d="M137 0zM556 -16h119q-45 -61 -66.5 -105t-21.5 -75q0 -46 27.5 -69t81.5 -23q32 0 63 7.5t62 22.5v-133q-38 -10 -72 -15t-64 -5q-122 0 -179.5 43.5t-57.5 136.5q0 48 26.5 100.5t81.5 114.5zM616 991q-140 0 -212 -109t-72 -323q0 -213 72 -322.5t212 -109.5 q141 0 213 109.5t72 322.5q0 214 -72 323t-213 109zM616 1147q233 0 356.5 -151t123.5 -437q0 -287 -123 -437.5t-357 -150.5q-233 0 -356 150.5t-123 437.5q0 286 123 437t356 151z" />
<glyph unicode="&#x1ec;" d="M117 0zM317 1840h598v-148h-598v148zM117 0zM556 -16h119q-45 -61 -66.5 -105t-21.5 -75q0 -46 27.5 -69t81.5 -23q32 0 63 7.5t62 22.5v-133q-38 -10 -72 -15t-64 -5q-122 0 -179.5 43.5t-57.5 136.5q0 48 26.5 100.5t81.5 114.5zM905 745q0 329 -67.5 470t-221.5 141 q-153 0 -220.5 -141t-67.5 -470q0 -328 67.5 -469t220.5 -141q154 0 221.5 140.5t67.5 469.5zM1116 745q0 -390 -123.5 -582t-376.5 -192t-376 191t-123 583q0 391 123.5 583t375.5 192q253 0 376.5 -192t123.5 -583z" />
<glyph unicode="&#x1ed;" d="M137 0zM317 1526h598v-148h-598v148zM137 0zM556 -16h119q-45 -61 -66.5 -105t-21.5 -75q0 -46 27.5 -69t81.5 -23q32 0 63 7.5t62 22.5v-133q-38 -10 -72 -15t-64 -5q-122 0 -179.5 43.5t-57.5 136.5q0 48 26.5 100.5t81.5 114.5zM616 991q-140 0 -212 -109t-72 -323 q0 -213 72 -322.5t212 -109.5q141 0 213 109.5t72 322.5q0 214 -72 323t-213 109zM616 1147q233 0 356.5 -151t123.5 -437q0 -287 -123 -437.5t-357 -150.5q-233 0 -356 150.5t-123 437.5q0 286 123 437t356 151z" />
<glyph unicode="&#x1ee;" d="M26 0zM522 1635l-211 266h140l165 -178l166 178h140l-211 -266h-189zM228 435q0 -143 100 -218q99 -75 288.5 -75t289.5 75t100 218q0 134 -92 207q-94 74 -258 74h-174v166l370 441h-738v170h970v-168l-376 -441q104 0 234 -56q98 -43 184 -151q80 -104 80 -242 q0 -221 -152 -342t-432 -121q-292 0 -444 121t-152 342h202z" />
<glyph unicode="&#x1ef;" d="M125 0zM543 1262l-246 376h139l180 -245l181 245h139l-246 -376h-147zM609 476q106 0 234 -56q98 -42 184 -151q81 -104 81 -242q0 -221 -152 -342t-432 -121q-94 0 -193 18q-100 19 -206 56v195q84 -49 184 -74t209 -25q190 0 289 75q100 75 100 218q0 132 -92 207 q-93 74 -258 74h-174v166l430 499h-667v147h874v-168z" />
<glyph unicode="&#x1f0;" d="M186 0zM578 1257l-246 376h139l180 -245l181 245h139l-246 -376h-147zM600 -20v997h-317v143h501v-1140q0 -195 -89.5 -300.5t-254.5 -105.5h-254v156h234q90 0 135 62.5t45 187.5z" />
<glyph unicode="&#x1f4;" d="M102 0zM762 1899h186l-229 -264h-154zM1104 123q-81 -75 -182.5 -113.5t-219.5 -38.5q-284 0 -442 203.5t-158 570.5q0 366 160 570.5t445 204.5q94 0 180 -26.5t166 -80.5v-207q-81 77 -166 113.5t-180 36.5q-197 0 -295.5 -152.5t-98.5 -458.5q0 -311 95.5 -460.5 t293.5 -149.5q67 0 117.5 15.5t91.5 48.5v401h-217v166h410v-643z" />
<glyph unicode="&#x1f5;" d="M123 0zM756 1638h198l-325 -376h-154zM858 569q0 207 -67.5 314.5t-196.5 107.5q-135 0 -206 -107.5t-71 -314.5t71.5 -315.5t207.5 -108.5q127 0 194.5 109t67.5 315zM1042 72q0 -252 -119 -382t-350 -130q-76 0 -159 14t-166 41v182q98 -46 178 -68t147 -22 q149 0 217 81t68 257v8v125q-44 -94 -120 -140t-185 -46q-196 0 -313 157t-117 420q0 264 117 421t313 157q108 0 183 -43t122 -133v145h184v-1044z" />
<glyph unicode="&#x1f6;" d="M877 135q54 0 79 79q33 102 33 372v295h182v-320q0 -373 -104 -513q-57 -77 -190 -77q-128 0 -200 83q-134 153 -134 507v150h-299v-711h-182v1493h182v-612h299v612h183v-907q0 -273 82 -412q23 -39 69 -39z" />
<glyph unicode="&#x1f8;" d="M139 0zM561 1899l197 -264h-154l-227 264h184zM139 1493h256l504 -1229v1229h195v-1493h-256l-504 1229v-1229h-195v1493z" />
<glyph unicode="&#x1f9;" d="M195 0zM477 1638l281 -376h-154l-325 376h198zM1051 694v-694h-185v694q0 151 -53 222t-166 71q-129 0 -198.5 -91.5t-69.5 -262.5v-633h-184v1120h184v-168q49 96 133 145.5t199 49.5q171 0 255.5 -112.5t84.5 -340.5z" />
<glyph unicode="&#x1fc;" d="M0 0zM912 1899h186l-229 -264h-154zM1161 1493v-170h-338v-442h307v-170h-307v-541h357v-170h-543v383h-352l-101 -383h-184l410 1493h751zM530 1323l-202 -772h309v772h-107z" />
<glyph unicode="&#x1fd;" d="M41 0zM756 1638h198l-325 -376h-154zM543 442v72h-49q-169 0 -229 -45t-60 -158q0 -89 44.5 -137.5t127.5 -48.5q92 0 129 66.5t37 250.5zM1036 657v52q0 151 -38.5 217.5t-125.5 66.5t-125 -68t-38 -225v-43h327zM1200 514h-491q-1 -15 -1.5 -32.5t-0.5 -51.5 q0 -161 50.5 -233t162.5 -72q79 0 143.5 25.5t114.5 76.5v-172q-55 -41 -121 -62.5t-137 -21.5q-110 0 -184.5 41t-106.5 119q-39 -80 -105.5 -120t-163.5 -40q-156 0 -237.5 86t-81.5 250q0 171 100 260.5t291 89.5h117v88q0 120 -49.5 184t-143.5 64q-56 0 -122 -21.5 t-128 -60.5v168q77 35 143 51.5t126 16.5q91 0 153 -31.5t99 -95.5q33 61 99 94t155 33q174 0 246.5 -118.5t72.5 -424.5v-90z" />
<glyph unicode="&#x1fe;" d="M8 0zM672 1899h186l-229 -264h-154zM371 303q30 -78 95.5 -123t149.5 -45q154 0 221.5 140.5t67.5 469.5q0 110 -5 178t-15 113zM338 471l504 719q-25 81 -82.5 123.5t-143.5 42.5q-157 0 -222.5 -146t-65.5 -524q0 -80 2.5 -130.5t7.5 -84.5zM1032 1247 q41 -81 62.5 -210t21.5 -292q0 -390 -123.5 -582t-376.5 -192q-121 0 -211 40.5t-151 121.5l-143 -203l-103 70l178 252q-32 73 -50.5 204t-18.5 289q0 391 123.5 583t375.5 192q115 0 201.5 -41t143.5 -121l139 201l100 -74z" />
<glyph unicode="&#x1ff;" d="M47 0zM756 1638h198l-325 -376h-154zM877 780l-463 -559q36 -47 86.5 -70.5t115.5 -23.5q141 0 213 109.5t72 322.5q0 52 -6 107.5t-18 113.5zM817 897q-35 48 -84.5 71t-116.5 23q-139 0 -213.5 -107t-74.5 -309q0 -48 7 -106t21 -129zM217 180q-39 71 -59.5 168.5 t-20.5 210.5q0 286 123 437t356 151q100 0 179 -27.5t139 -83.5l147 176l93 -77l-164 -195q42 -66 64 -162.5t22 -218.5q0 -287 -123 -437.5t-357 -150.5q-103 0 -181.5 29.5t-135.5 89.5l-160 -186l-92 76z" />
<glyph unicode="&#x200;" d="M37 0zM373 1899l197 -264h-154l-229 264h186zM692 1899l197 -264h-154l-229 264h186zM616 1315l-213 -764h426zM494 1493h245l457 -1493h-209l-110 389h-523l-108 -389h-209z" />
<glyph unicode="&#x201;" d="M133 0zM388 1638l205 -376h-135l-248 376h178zM722 1638l190 -376h-137l-223 376h170zM702 563h-61q-161 0 -242.5 -56.5t-81.5 -168.5q0 -101 61 -157t169 -56q152 0 239 105.5t88 291.5v41h-172zM1059 639v-639h-185v166q-59 -100 -148.5 -147.5t-217.5 -47.5 q-171 0 -273 96.5t-102 258.5q0 187 125.5 284t368.5 97h247v29q-1 134 -68 194.5t-214 60.5q-94 0 -190 -27t-187 -79v184q102 39 195.5 58.5t181.5 19.5q139 0 237.5 -41t159.5 -123q38 -50 54 -123.5t16 -220.5z" />
<glyph unicode="&#x202;" d="M37 0zM303 1659q11 120 90 181t223 61t223.5 -61.5t90.5 -180.5h-119q-15 56 -63.5 83.5t-131.5 27.5q-82 0 -132 -28.5t-62 -82.5h-119zM616 1315l-213 -764h426zM494 1493h245l457 -1493h-209l-110 389h-523l-108 -389h-209z" />
<glyph unicode="&#x203;" d="M133 0zM303 1321q11 143 90 215t223 72q145 0 224 -72t90 -215h-119q-14 76 -62 113t-133 37q-87 0 -135 -37t-59 -113h-119zM702 563h-61q-161 0 -242.5 -56.5t-81.5 -168.5q0 -101 61 -157t169 -56q152 0 239 105.5t88 291.5v41h-172zM1059 639v-639h-185v166 q-59 -100 -148.5 -147.5t-217.5 -47.5q-171 0 -273 96.5t-102 258.5q0 187 125.5 284t368.5 97h247v29q-1 134 -68 194.5t-214 60.5q-94 0 -190 -27t-187 -79v184q102 39 195.5 58.5t181.5 19.5q139 0 237.5 -41t159.5 -123q38 -50 54 -123.5t16 -220.5z" />
<glyph unicode="&#x204;" d="M187 0zM373 1899l197 -264h-154l-229 264h186zM692 1899l197 -264h-154l-229 264h186zM197 1493h886v-170h-684v-442h654v-170h-654v-541h703v-170h-905v1493z" />
<glyph unicode="&#x205;" d="M123 0zM402 1638l205 -376h-135l-248 376h178zM736 1638l190 -376h-137l-223 376h170zM1112 606v-90h-797v-6q0 -183 95.5 -283t269.5 -100q88 0 184 28t205 85v-183q-105 -43 -202.5 -64.5t-188.5 -21.5q-261 0 -408 156.5t-147 431.5q0 268 144 428t384 160 q214 0 337.5 -145t123.5 -396zM928 660q-4 162 -76.5 246.5t-208.5 84.5q-133 0 -219 -88t-102 -244z" />
<glyph unicode="&#x206;" d="M197 0zM303 1659q11 120 90 181t223 61t223.5 -61.5t90.5 -180.5h-119q-15 56 -63.5 83.5t-131.5 27.5q-82 0 -132 -28.5t-62 -82.5h-119zM197 1493h886v-170h-684v-442h654v-170h-654v-541h703v-170h-905v1493z" />
<glyph unicode="&#x207;" d="M123 0zM317 1321q11 143 90 215t223 72q145 0 224 -72t90 -215h-119q-14 76 -62 113t-133 37q-87 0 -135 -37t-59 -113h-119zM1112 606v-90h-797v-6q0 -183 95.5 -283t269.5 -100q88 0 184 28t205 85v-183q-105 -43 -202.5 -64.5t-188.5 -21.5q-261 0 -408 156.5 t-147 431.5q0 268 144 428t384 160q214 0 337.5 -145t123.5 -396zM928 660q-4 162 -76.5 246.5t-208.5 84.5q-133 0 -219 -88t-102 -244z" />
<glyph unicode="&#x208;" d="M187 0zM373 1899l197 -264h-154l-229 264h186zM692 1899l197 -264h-154l-229 264h186zM201 1493h829v-170h-313v-1153h313v-170h-829v170h313v1153h-313v170z" />
<glyph unicode="&#x209;" d="M178 0zM388 1638l205 -376h-135l-248 376h178zM722 1638l190 -376h-137l-223 376h170zM256 1120h471v-977h365v-143h-914v143h365v834h-287v143z" />
<glyph unicode="&#x20a;" d="M201 0zM303 1659q11 120 90 181t223 61t223.5 -61.5t90.5 -180.5h-119q-15 56 -63.5 83.5t-131.5 27.5q-82 0 -132 -28.5t-62 -82.5h-119zM201 1493h829v-170h-313v-1153h313v-170h-829v170h313v1153h-313v170z" />
<glyph unicode="&#x20b;" d="M178 0zM303 1321q11 143 90 215t223 72q145 0 224 -72t90 -215h-119q-14 76 -62 113t-133 37q-87 0 -135 -37t-59 -113h-119zM256 1120h471v-977h365v-143h-914v143h365v834h-287v143z" />
<glyph unicode="&#x20c;" d="M117 0zM373 1899l197 -264h-154l-229 264h186zM692 1899l197 -264h-154l-229 264h186zM905 745q0 329 -67.5 470t-221.5 141q-153 0 -220.5 -141t-67.5 -470q0 -328 67.5 -469t220.5 -141q154 0 221.5 140.5t67.5 469.5zM1116 745q0 -390 -123.5 -582t-376.5 -192 t-376 191t-123 583q0 391 123.5 583t375.5 192q253 0 376.5 -192t123.5 -583z" />
<glyph unicode="&#x20d;" d="M137 0zM388 1638l205 -376h-135l-248 376h178zM722 1638l190 -376h-137l-223 376h170zM616 991q-140 0 -212 -109t-72 -323q0 -213 72 -322.5t212 -109.5q141 0 213 109.5t72 322.5q0 214 -72 323t-213 109zM616 1147q233 0 356.5 -151t123.5 -437q0 -287 -123 -437.5 t-357 -150.5q-233 0 -356 150.5t-123 437.5q0 286 123 437t356 151z" />
<glyph unicode="&#x20e;" d="M117 0zM303 1659q11 120 90 181t223 61t223.5 -61.5t90.5 -180.5h-119q-15 56 -63.5 83.5t-131.5 27.5q-82 0 -132 -28.5t-62 -82.5h-119zM905 745q0 329 -67.5 470t-221.5 141q-153 0 -220.5 -141t-67.5 -470q0 -328 67.5 -469t220.5 -141q154 0 221.5 140.5t67.5 469.5 zM1116 745q0 -390 -123.5 -582t-376.5 -192t-376 191t-123 583q0 391 123.5 583t375.5 192q253 0 376.5 -192t123.5 -583z" />
<glyph unicode="&#x20f;" d="M137 0zM303 1321q11 143 90 215t223 72q145 0 224 -72t90 -215h-119q-14 76 -62 113t-133 37q-87 0 -135 -37t-59 -113h-119zM616 991q-140 0 -212 -109t-72 -323q0 -213 72 -322.5t212 -109.5q141 0 213 109.5t72 322.5q0 214 -72 323t-213 109zM616 1147 q233 0 356.5 -151t123.5 -437q0 -287 -123 -437.5t-357 -150.5q-233 0 -356 150.5t-123 437.5q0 286 123 437t356 151z" />
<glyph unicode="&#x210;" d="M137 0zM323 1899l197 -264h-154l-229 264h186zM642 1899l197 -264h-154l-229 264h186zM760 705q78 -20 133 -75.5t137 -221.5l203 -408h-217l-178 377q-77 161 -138.5 207.5t-160.5 46.5h-193v-631h-203v1493h416q246 0 377 -111t131 -321q0 -148 -80.5 -241.5 t-226.5 -114.5zM346 1327v-530h221q145 0 216 65t71 199q0 129 -75.5 197.5t-219.5 68.5h-213z" />
<glyph unicode="&#x211;" d="M360 0zM538 1638l205 -376h-135l-248 376h178zM872 1638l190 -376h-137l-223 376h170zM1155 889q-59 46 -120 67t-134 21q-172 0 -263 -108t-91 -312v-557h-185v1120h185v-219q46 119 141.5 182.5t226.5 63.5q68 0 127 -17t113 -53v-188z" />
<glyph unicode="&#x212;" d="M143 0zM253 1659q11 120 90 181t223 61t223.5 -61.5t90.5 -180.5h-119q-15 56 -63.5 83.5t-131.5 27.5q-82 0 -132 -28.5t-62 -82.5h-119zM760 705q78 -20 133 -75.5t137 -221.5l203 -408h-217l-178 377q-77 161 -138.5 207.5t-160.5 46.5h-193v-631h-203v1493h416 q246 0 377 -111t131 -321q0 -148 -80.5 -241.5t-226.5 -114.5zM346 1327v-530h221q145 0 216 65t71 199q0 129 -75.5 197.5t-219.5 68.5h-213z" />
<glyph unicode="&#x213;" d="M362 0zM453 1321q11 143 90 215t223 72q145 0 224 -72t90 -215h-119q-14 76 -62 113t-133 37q-87 0 -135 -37t-59 -113h-119zM1155 889q-59 46 -120 67t-134 21q-172 0 -263 -108t-91 -312v-557h-185v1120h185v-219q46 119 141.5 182.5t226.5 63.5q68 0 127 -17t113 -53 v-188z" />
<glyph unicode="&#x214;" d="M147 0zM373 1899l197 -264h-154l-229 264h186zM692 1899l197 -264h-154l-229 264h186zM147 573v920h203v-1012q0 -109 6 -155.5t21 -71.5q32 -59 92.5 -89t146.5 -30q87 0 147 30t93 89q15 25 21 71t6 154v1014h202v-920q0 -229 -28.5 -325.5t-98.5 -159.5 q-66 -59 -151 -88t-191 -29q-105 0 -190 29t-152 88q-69 62 -98 160.5t-29 324.5z" />
<glyph unicode="&#x215;" d="M195 0zM388 1638l205 -376h-135l-248 376h178zM722 1638l190 -376h-137l-223 376h170zM195 424v694h184v-694q0 -151 53.5 -222t165.5 -71q130 0 199 91.5t69 262.5v633h185v-1118h-185v168q-49 -97 -133.5 -147t-197.5 -50q-172 0 -256 112.5t-84 340.5z" />
<glyph unicode="&#x216;" d="M147 0zM303 1659q11 120 90 181t223 61t223.5 -61.5t90.5 -180.5h-119q-15 56 -63.5 83.5t-131.5 27.5q-82 0 -132 -28.5t-62 -82.5h-119zM147 573v920h203v-1012q0 -109 6 -155.5t21 -71.5q32 -59 92.5 -89t146.5 -30q87 0 147 30t93 89q15 25 21 71t6 154v1014h202 v-920q0 -229 -28.5 -325.5t-98.5 -159.5q-66 -59 -151 -88t-191 -29q-105 0 -190 29t-152 88q-69 62 -98 160.5t-29 324.5z" />
<glyph unicode="&#x217;" d="M195 0zM303 1321q11 143 90 215t223 72q145 0 224 -72t90 -215h-119q-14 76 -62 113t-133 37q-87 0 -135 -37t-59 -113h-119zM195 424v694h184v-694q0 -151 53.5 -222t165.5 -71q130 0 199 91.5t69 262.5v633h185v-1118h-185v168q-49 -97 -133.5 -147t-197.5 -50 q-172 0 -256 112.5t-84 340.5z" />
</font>
</defs>
</svg>
