<?xml version="1.0" standalone="no"?>
<!DOCTYPE svg PUBLIC "-//W3C//DTD SVG 1.1//EN" "http://www.w3.org/Graphics/SVG/1.1/DTD/svg11.dtd" >
<svg xmlns="http://www.w3.org/2000/svg">
<metadata></metadata>
<defs>
<font id="clear_sans_thinregular" horiz-adv-x="526" >
<font-face units-per-em="2048" ascent="1489" descent="-559" />
<missing-glyph horiz-adv-x="500" />
<glyph unicode="&#xfb01;" horiz-adv-x="1077" d="M51 971v78h174v131q0 88 13.5 152t44.5 106t80.5 62t121.5 20q31 0 60.5 -4.5t56.5 -12t49.5 -17.5t38.5 -20l-37 -69q-14 10 -34 18.5t-43 15.5t-47.5 11t-47.5 4q-45 0 -77.5 -13t-53 -44.5t-30 -83.5t-9.5 -131v-125h254v-78h-254v-971h-86v971h-174zM768 1294 q0 37 16.5 54.5t55.5 17.5q40 0 55.5 -16.5t15.5 -55.5q0 -42 -16.5 -56.5t-54.5 -14.5q-41 0 -56.5 18.5t-15.5 52.5zM797 0v1049h86v-1049h-86z" />
<glyph unicode="&#xfb02;" horiz-adv-x="1110" d="M51 971v78h174v131q0 88 13.5 152t44.5 106t80.5 62t121.5 20q31 0 60.5 -4.5t56.5 -12t49.5 -17.5t38.5 -20l-37 -69q-14 10 -34 18.5t-43 15.5t-47.5 11t-47.5 4q-45 0 -77.5 -13t-53 -44.5t-30 -83.5t-9.5 -131v-125h254v-78h-254v-971h-86v971h-174zM813 0v1489h86 v-1489h-86z" />
<glyph unicode="&#xfb03;" horiz-adv-x="1683" d="M51 971v78h174v131q0 88 13.5 152t44.5 106t80.5 62t121.5 20q31 0 60.5 -4.5t56.5 -12t49.5 -17.5t38.5 -20l-37 -69q-14 10 -34 18.5t-43 15.5t-47.5 11t-47.5 4q-45 0 -77.5 -13t-53 -44.5t-30 -83.5t-9.5 -131v-125h254v-78h-254v-971h-86v971h-174zM657 971v78h174 v131q0 88 13.5 152t44.5 106t80.5 62t121.5 20q31 0 60.5 -4.5t56.5 -12t49.5 -17.5t38.5 -20l-37 -69q-14 10 -34 18.5t-43 15.5t-47.5 11t-47.5 4q-45 0 -77.5 -13t-53 -44.5t-30 -83.5t-9.5 -131v-125h254v-78h-254v-971h-86v971h-174zM1374 1294q0 37 16.5 54.5 t55.5 17.5q40 0 55.5 -16.5t15.5 -55.5q0 -42 -16.5 -56.5t-54.5 -14.5q-41 0 -56.5 18.5t-15.5 52.5zM1403 0v1049h86v-1049h-86z" />
<glyph unicode="&#xfb04;" horiz-adv-x="1716" d="M51 971v78h174v131q0 88 13.5 152t44.5 106t80.5 62t121.5 20q31 0 60.5 -4.5t56.5 -12t49.5 -17.5t38.5 -20l-37 -69q-14 10 -34 18.5t-43 15.5t-47.5 11t-47.5 4q-45 0 -77.5 -13t-53 -44.5t-30 -83.5t-9.5 -131v-125h254v-78h-254v-971h-86v971h-174zM657 971v78h174 v131q0 88 13.5 152t44.5 106t80.5 62t121.5 20q31 0 60.5 -4.5t56.5 -12t49.5 -17.5t38.5 -20l-37 -69q-14 10 -34 18.5t-43 15.5t-47.5 11t-47.5 4q-45 0 -77.5 -13t-53 -44.5t-30 -83.5t-9.5 -131v-125h254v-78h-254v-971h-86v971h-174zM1419 0v1489h86v-1489h-86z" />
<glyph horiz-adv-x="0" />
<glyph unicode="&#xd;" />
<glyph horiz-adv-x="0" />
<glyph horiz-adv-x="0" />
<glyph unicode=" " />
<glyph unicode="!" d="M182 57q0 39 18.5 55.5t61.5 16.5q45 0 63.5 -17.5t18.5 -54.5q0 -40 -21 -55.5t-61 -15.5q-47 0 -63.5 20t-16.5 51zM213 1384h100l-14 -1026h-68z" />
<glyph unicode="&#x22;" horiz-adv-x="870" d="M221 1520h123l-31 -490h-61zM526 1520h123l-31 -490h-61z" />
<glyph unicode="#" horiz-adv-x="1487" d="M135 401v68h289l123 446h-295v68h311l105 401h73l-104 -401h362l109 401h74l-105 -401h275v-68h-291l-119 -446h293v-68h-315l-109 -401h-74l105 401h-363l-106 -401h-74l107 401h-271zM498 469h366l123 446h-366z" />
<glyph unicode="$" horiz-adv-x="1247" d="M225 334l74 41q17 -35 42.5 -70.5t62 -64.5t85.5 -49.5t113 -26.5v524q-100 19 -166.5 51t-107 72.5t-57.5 88t-17 97.5q0 57 18 111.5t59 98t107.5 72t163.5 32.5v102h78v-102q127 -6 215 -59.5t147 -168.5l-73 -34q-42 88 -112.5 135t-176.5 53v-483q73 -15 139.5 -40 t117 -64.5t80.5 -97.5t30 -140q0 -76 -28 -135t-77 -99.5t-116.5 -62.5t-145.5 -25v-223h-78v223q-81 5 -142 30t-106 60.5t-76 76t-53 77.5zM340 997q0 -57 24 -96t61.5 -64.5t84.5 -40.5t92 -26v467q-78 -3 -128.5 -22t-80 -51t-41.5 -74.5t-12 -92.5zM680 164 q51 3 101 17.5t90 44t65 76t25 114.5q0 103 -67.5 164t-213.5 92v-508z" />
<glyph unicode="%" horiz-adv-x="2015" d="M135 979q0 118 23.5 200.5t67.5 134.5t107.5 75.5t143.5 23.5q170 0 257 -108t87 -326q0 -113 -22.5 -195t-66.5 -135.5t-108 -79.5t-147 -26q-87 0 -151.5 24t-107 76t-63 135t-20.5 201zM221 979q0 -98 13.5 -166.5t44 -112.5t79 -64t119.5 -20q67 0 116 20.5 t80.5 64.5t46.5 112.5t15 165.5q0 41 -3.5 83.5t-13.5 82.5t-28 75.5t-47 61.5t-69.5 41.5t-96.5 15.5q-71 0 -120 -21.5t-79 -65.5t-43.5 -112t-13.5 -161zM551 -51l819 1487h84l-821 -1487h-82zM1194 406q0 118 23.5 200.5t67.5 134.5t107.5 75.5t143.5 23.5 q170 0 257 -108.5t87 -325.5q0 -113 -22.5 -195.5t-66.5 -136t-108 -79.5t-147 -26q-87 0 -151.5 24t-107 76t-63 135t-20.5 202zM1280 406q0 -98 13.5 -167t44 -112.5t79 -63.5t119.5 -20q67 0 116 20.5t80.5 64t46.5 112.5t15 166q0 61 -9 125t-36.5 116t-78 85.5 t-134.5 33.5q-71 0 -120 -21.5t-79 -66t-43.5 -112t-13.5 -160.5z" />
<glyph unicode="&#x26;" horiz-adv-x="1434" d="M182 346q0 64 16.5 116t58 100t111 98t175.5 112q-55 64 -91 113.5t-57.5 90t-30 74.5t-8.5 68q0 143 83.5 219t248.5 76q80 0 138 -21t95.5 -56.5t55.5 -81.5t18 -97q0 -57 -18.5 -110t-58 -103t-100.5 -97.5t-146 -94.5l409 -486q50 63 89 142.5t65 181.5l84 -25 q-11 -51 -30.5 -103.5t-44.5 -101.5t-52 -90.5t-53 -70.5l172 -199h-119l-115 137q-88 -75 -193.5 -120.5t-238.5 -45.5q-114 0 -201 28t-145 78t-87.5 119t-29.5 150zM272 348q0 -68 25.5 -123t74 -94t118.5 -60.5t159 -21.5q99 0 194.5 37.5t176.5 118.5l-426 506 q-105 -58 -168 -102.5t-97.5 -85.5t-45.5 -82.5t-11 -92.5zM446 1118q0 -32 9 -63.5t30 -67t54.5 -78t81.5 -96.5q75 41 128.5 81t88 82t51 86.5t16.5 94.5q0 39 -13.5 71.5t-41 56t-69.5 37t-99 13.5q-81 0 -128 -22t-71 -55t-30.5 -71t-6.5 -69z" />
<glyph unicode="'" horiz-adv-x="565" d="M221 1520h123l-31 -490h-61z" />
<glyph unicode="(" horiz-adv-x="737" d="M186 561q0 287 81.5 523.5t250.5 433.5h96q-79 -82 -142.5 -186t-107.5 -225.5t-68 -259t-24 -286.5q0 -143 21.5 -267.5t64.5 -239t107 -225t149 -224.5h-96q-88 114 -151 224.5t-103 225t-59 239t-19 267.5z" />
<glyph unicode=")" horiz-adv-x="797" d="M182 -395q87 110 151.5 219.5t106.5 225.5t63 242t21 269q0 292 -88.5 531t-253.5 426h97q169 -197 250 -433.5t81 -523.5q0 -144 -20 -270t-61 -242.5t-103.5 -225.5t-146.5 -218h-97z" />
<glyph unicode="*" horiz-adv-x="985" d="M154 1030l286 158l-286 155l32 58l275 -158l-4 277h71l-6 -277l277 158l32 -58l-286 -155l286 -158l-32 -57l-277 160l4 -277h-71l6 277l-275 -160z" />
<glyph unicode="+" horiz-adv-x="1427" d="M195 545v78h477v481h78v-481h483v-78h-483v-479h-78v479h-477z" />
<glyph unicode="," d="M188 57q0 72 74 72q35 0 55.5 -21t20.5 -75q0 -51 -10.5 -98t-25.5 -85t-32 -64.5t-30 -37.5h-47q16 16 30.5 41t25 55.5t17 66.5t6.5 75q-26 0 -42.5 5t-25.5 14t-12.5 22t-3.5 30z" />
<glyph unicode="-" horiz-adv-x="868" d="M123 485v82h622v-82h-622z" />
<glyph unicode="." d="M188 57q0 72 74 72q40 0 58 -16.5t18 -55.5q0 -42 -19 -56.5t-57 -14.5q-40 0 -57 18.5t-17 52.5z" />
<glyph unicode="/" horiz-adv-x="913" d="M29 -299l739 1819h80l-742 -1819h-77z" />
<glyph unicode="0" horiz-adv-x="1247" d="M150 686q0 184 28.5 319t86.5 223t147 130.5t211 42.5t211.5 -42.5t148 -130.5t87 -222t28.5 -318t-28.5 -319.5t-87 -224t-148 -132t-211.5 -43.5t-211 42.5t-147 131t-86.5 223.5t-28.5 320zM244 686q0 -169 23 -290t70.5 -198.5t118.5 -114t167 -36.5q97 0 168.5 36.5 t118.5 114.5t70.5 199t23.5 291q0 169 -23.5 289.5t-70.5 197t-118.5 112.5t-168.5 36q-102 0 -173.5 -37t-117.5 -115t-67 -198.5t-21 -286.5z" />
<glyph unicode="1" horiz-adv-x="1247" d="M313 1051v65q74 2 132.5 24.5t103 59.5t74.5 84.5t47 99.5h61v-1384h-86v1196q-56 -71 -141 -108t-191 -37z" />
<glyph unicode="2" horiz-adv-x="1171" d="M168 1178q12 28 39.5 68.5t76 77.5t121 63t173.5 26q83 0 157.5 -21.5t131 -68t89.5 -121t33 -180.5q0 -101 -44.5 -198t-139.5 -206q-41 -46 -94 -105t-119.5 -128t-147 -146.5t-174.5 -160.5h764v-78h-862v92q52 44 109 96t114 108t113.5 113.5t107.5 113.5t95 108 t77 96q47 62 77 133.5t30 161.5q0 78 -23 137t-65 98t-101 58.5t-131 19.5q-120 0 -203 -49t-126 -145z" />
<glyph unicode="3" horiz-adv-x="1171" d="M139 154l62 47q22 -33 57.5 -61t78.5 -48t90.5 -31.5t94.5 -11.5q95 0 166 20t118 62.5t70 110.5t23 164q0 72 -20 128.5t-65 95t-118.5 59t-181.5 20.5h-82v77h66q84 0 153.5 18.5t119.5 55t78 91t28 126.5q0 131 -81.5 194.5t-234.5 63.5q-122 0 -206 -48.5 t-138 -133.5l-67 43q27 43 65 82.5t89 69.5t115.5 47.5t145.5 17.5q108 0 184.5 -25.5t125 -70t71.5 -104t23 -128.5q0 -68 -18.5 -121t-53.5 -93.5t-85 -69.5t-114 -47q62 -7 116 -32t93.5 -68.5t62.5 -106.5t23 -146q0 -212 -120.5 -321t-344.5 -109q-54 0 -111 12 t-110 35t-97 57t-71 79z" />
<glyph unicode="4" horiz-adv-x="1247" d="M68 385v90l766 909h51v-921h211v-78h-211v-385h-86v385h-731zM158 463h641v762z" />
<glyph unicode="5" horiz-adv-x="1171" d="M176 150l66 51q20 -31 51.5 -58.5t71 -48.5t86 -33t96.5 -12q95 0 161.5 30t108 81.5t60 119.5t18.5 144q0 86 -23.5 147.5t-67 101.5t-105 58.5t-136.5 18.5t-137.5 -18.5t-116.5 -55.5h-51l70 708h641v-77h-570l-53 -535q24 13 54.5 23.5t62 17.5t61 10.5t51.5 3.5 q103 0 180.5 -28.5t129.5 -80.5t78 -125.5t26 -162.5q0 -108 -29.5 -193.5t-86 -144.5t-138 -90t-184.5 -31q-70 0 -130.5 15t-108.5 40t-83 57.5t-53 66.5z" />
<glyph unicode="6" horiz-adv-x="1171" d="M145 674q0 163 31.5 299t94.5 234t159 152t225 54q100 0 181 -35t149 -118l-63 -56q-26 31 -54.5 55.5t-61.5 41.5t-72 25.5t-87 8.5q-94 0 -167 -41t-125 -117.5t-81 -186t-34 -247.5q27 19 66.5 39.5t88.5 37.5t105.5 28.5t117.5 11.5q94 0 170.5 -22t131 -71 t84.5 -127.5t30 -190.5q0 -114 -27.5 -203t-82 -150t-135.5 -93t-187 -32q-128 0 -215 46t-141 135t-77.5 220t-23.5 302zM240 672q0 -128 12 -224.5t34.5 -165.5t54.5 -114t72.5 -71.5t88.5 -37t102 -10.5q90 0 153.5 29t104 81.5t59.5 124.5t19 158q0 105 -25.5 171.5 t-71 104t-108 51t-135.5 13.5q-39 0 -85 -8t-94 -22.5t-94.5 -35t-86.5 -44.5z" />
<glyph unicode="7" horiz-adv-x="1247" d="M166 1307v77h893v-84l-535 -1300h-94l541 1307h-805z" />
<glyph unicode="8" horiz-adv-x="1171" d="M133 338q0 73 22.5 132t67.5 108t111.5 88.5t154.5 72.5q-87 42 -148 77t-99 73t-55 83t-17 107q0 69 24 130t75 106.5t130.5 71.5t190.5 26q205 0 311.5 -85t106.5 -247q0 -78 -29 -133.5t-74 -95.5t-100 -67.5t-107 -47.5q81 -38 145 -75t108.5 -82t68.5 -103t24 -139 q0 -182 -118.5 -274.5t-335.5 -92.5q-232 0 -344.5 95.5t-112.5 271.5zM223 336q0 -134 90.5 -210.5t276.5 -76.5q184 0 274 74t90 215q0 58 -15 103t-55.5 85.5t-110.5 80.5t-181 89q-112 -38 -183.5 -76.5t-113 -81.5t-57 -92.5t-15.5 -109.5zM260 1083q0 -45 15.5 -82 t54 -71.5t104 -70t166.5 -77.5q84 31 144.5 60.5t99 63.5t56.5 75.5t18 95.5q0 58 -19 106t-58.5 81.5t-101.5 52t-149 18.5t-149.5 -17.5t-102.5 -50.5t-59 -79.5t-19 -104.5z" />
<glyph unicode="9" horiz-adv-x="1171" d="M137 936q0 114 28 202.5t82.5 149.5t135 93t186.5 32q127 0 214.5 -46t141.5 -135t77.5 -220t23.5 -301q0 -164 -31.5 -300t-94.5 -234t-159 -152t-225 -54q-60 0 -110.5 12.5t-93 35t-78 53.5t-64.5 67l63 56q26 -32 55 -58.5t63.5 -46t76.5 -30.5t96 -11q94 0 167.5 41 t125 117.5t81 186t34.5 247.5q-28 -18 -67.5 -39t-88.5 -38t-105.5 -28.5t-117.5 -11.5q-94 0 -170.5 22.5t-131 71.5t-84.5 127.5t-30 190.5zM231 942q0 -105 26 -171.5t71.5 -104t107.5 -51t135 -13.5q39 0 85.5 8t94.5 22.5t94.5 35t86.5 45.5q0 193 -26.5 314 t-74.5 189.5t-115.5 93.5t-148.5 25q-90 0 -153.5 -29t-104 -81.5t-59.5 -124.5t-19 -158z" />
<glyph unicode=":" d="M188 57q0 72 74 72q40 0 58 -16.5t18 -55.5q0 -42 -19 -56.5t-57 -14.5q-40 0 -57 18.5t-17 52.5zM188 979q0 72 74 72q40 0 58 -17t18 -55q0 -42 -19 -57t-57 -15q-40 0 -57 19t-17 53z" />
<glyph unicode=";" d="M188 57q0 72 74 72q35 0 55.5 -21t20.5 -75q0 -51 -10.5 -98t-25.5 -85t-32 -64.5t-30 -37.5h-47q16 16 30.5 41t25 55.5t17 66.5t6.5 75q-26 0 -42.5 5t-25.5 14t-12.5 22t-3.5 30zM188 979q0 72 74 72q40 0 58 -17t18 -55q0 -42 -19 -57t-57 -15q-40 0 -57 19t-17 53z " />
<glyph unicode="&#x3c;" horiz-adv-x="1427" d="M197 563v49l1036 447v-86l-895 -385l895 -385v-86z" />
<glyph unicode="=" horiz-adv-x="1427" d="M195 330v78h1038v-78h-1038zM195 768v78h1038v-78h-1038z" />
<glyph unicode="&#x3e;" horiz-adv-x="1427" d="M197 117v86l895 385l-895 385v86l1036 -447v-49z" />
<glyph unicode="?" horiz-adv-x="1026" d="M104 1245q18 32 51 62.5t78.5 54t103 37.5t124.5 14q90 0 167 -22t132.5 -65.5t87 -108.5t31.5 -152q0 -80 -24.5 -146t-75.5 -126t-130.5 -118t-189.5 -122v-225h-82v264q118 64 197 118.5t126.5 108.5t67.5 112.5t20 131.5q0 61 -20.5 111.5t-61.5 86t-101.5 55 t-141.5 19.5q-63 0 -111.5 -12.5t-84.5 -32t-60 -43.5t-37 -47zM338 57q0 39 18 55.5t62 16.5q45 0 63.5 -16.5t18.5 -55.5q0 -40 -21 -55.5t-61 -15.5q-48 0 -64 20t-16 51z" />
<glyph unicode="@" horiz-adv-x="1921" d="M139 553q0 124 29 236t82.5 207.5t130 172.5t171 131t205 83.5t232.5 29.5q200 0 354 -55.5t259 -161t159 -258.5t54 -348q0 -70 -8.5 -140t-26.5 -133.5t-46.5 -118.5t-68.5 -95.5t-92.5 -63.5t-118.5 -23q-54 0 -91.5 10.5t-62.5 32.5t-39 56t-20 80q-41 -35 -83 -63 t-83.5 -48t-81 -30.5t-73.5 -10.5q-102 0 -171 41t-111 107t-59.5 150t-17.5 171q0 115 24 209t73.5 160.5t125 102.5t179.5 36q46 0 89 -12.5t79.5 -30t64.5 -36.5t43 -32v80h86v-756q0 -41 7.5 -68.5t23.5 -44t40 -23.5t56 -7q66 0 117.5 35t87 100.5t54 158t18.5 206.5 q0 175 -45.5 314t-137 235.5t-230 148t-325.5 51.5q-174 0 -315 -60t-241.5 -166t-155 -250t-54.5 -312q0 -188 54 -334t153.5 -247t240 -153.5t314.5 -52.5q116 0 220 11.5t186 29.5l18 -77q-41 -9 -90.5 -15.5t-105 -11.5t-114 -7.5t-116.5 -2.5q-189 0 -345 57t-267 167 t-172.5 270.5t-61.5 367.5zM651 518q0 -68 11.5 -138.5t42 -128t83.5 -94t136 -36.5q42 0 84.5 14t83 35.5t77.5 47t68 48.5v568q-24 18 -56 37t-68.5 34.5t-75 26t-74.5 10.5q-89 0 -148.5 -30t-96 -85.5t-52 -133.5t-15.5 -175z" />
<glyph unicode="A" horiz-adv-x="1239" d="M76 0l487 1384h107l493 -1384h-100l-150 440h-591l-150 -440h-96zM348 518h537l-271 787z" />
<glyph unicode="B" horiz-adv-x="1245" d="M215 0v1384h383q116 0 194.5 -19.5t126.5 -58.5t68.5 -96.5t20.5 -132.5q0 -126 -50.5 -203.5t-162.5 -115.5q63 -9 119 -34t98.5 -67.5t67 -103.5t24.5 -143q0 -108 -33 -185.5t-97.5 -127.5t-159 -73.5t-218.5 -23.5h-381zM301 78h252q114 0 199.5 14.5t142.5 51.5 t86 99.5t29 157.5q0 99 -32.5 157.5t-89.5 89t-135.5 39.5t-170.5 9h-281v-618zM301 774h238q187 0 280.5 66t93.5 217q0 67 -15 114.5t-55.5 77.5t-111.5 44t-184 14h-246v-533z" />
<glyph unicode="C" horiz-adv-x="1309" d="M162 692q0 170 31.5 304t99.5 226.5t175 141.5t257 49q87 0 158 -17t128 -51.5t101 -85.5t78 -118l-80 -45q-30 59 -66.5 103t-83 73.5t-105 44t-132.5 14.5q-127 0 -215.5 -41t-144.5 -121t-81.5 -200t-25.5 -277q0 -149 24.5 -267.5t80.5 -201t147 -126.5t225 -44 q91 0 156.5 22.5t112 57.5t77 78t51.5 84l76 -45q-32 -61 -73.5 -112t-97.5 -88t-130.5 -58t-173.5 -21q-147 0 -254.5 45.5t-177.5 136t-103.5 225.5t-33.5 314z" />
<glyph unicode="D" horiz-adv-x="1272" d="M203 0v1384h299q159 0 275.5 -35t192.5 -116t113 -213.5t37 -327.5q0 -202 -42 -335t-121.5 -212.5t-194.5 -112t-260 -32.5h-299zM289 78h198q142 0 244 31t167.5 103t96.5 190t31 292q0 165 -28 281.5t-91.5 190t-166.5 107.5t-253 34h-198v-1229z" />
<glyph unicode="E" horiz-adv-x="1157" d="M215 0v1384h793v-77h-707v-529h610v-78h-610v-622h707v-78h-793z" />
<glyph unicode="F" horiz-adv-x="1112" d="M215 0v1384h784v-77h-698v-516h600v-78h-600v-713h-86z" />
<glyph unicode="G" horiz-adv-x="1366" d="M162 700q0 165 29 297.5t94.5 224.5t171.5 141.5t260 49.5q89 0 158.5 -18t123.5 -52.5t95 -85.5t73 -116l-80 -43q-29 61 -64.5 105t-81.5 72.5t-103 42t-129 13.5q-122 0 -208 -40t-140.5 -120t-79.5 -199t-25 -276q0 -153 25.5 -273t83 -202t150.5 -125t228 -43 q44 0 85 5t81.5 15t82.5 25.5t87 36.5v449h-401v78h487v-580q-58 -28 -106 -48.5t-96.5 -34.5t-102.5 -21t-125 -7q-164 0 -274 53.5t-176.5 150.5t-94.5 230.5t-28 294.5z" />
<glyph unicode="H" horiz-adv-x="1319" d="M215 0v1384h86v-628h717v628h86v-1384h-86v678h-717v-678h-86z" />
<glyph unicode="I" horiz-adv-x="668" d="M102 0v78h189v1229h-189v77h463v-77h-188v-1229h188v-78h-463z" />
<glyph unicode="J" horiz-adv-x="846" d="M82 18l35 78q35 -18 87 -31.5t107 -13.5q75 0 121 25.5t71 76t33.5 126t8.5 174.5v931h86v-968q0 -108 -14.5 -191.5t-51 -140.5t-99 -86t-157.5 -29q-32 0 -64.5 4.5t-62.5 11t-56 15.5t-44 18z" />
<glyph unicode="K" horiz-adv-x="1247" d="M215 0v1384h86v-796l737 796h111l-610 -659l630 -725h-116l-574 666l-178 -183v-483h-86z" />
<glyph unicode="L" horiz-adv-x="1038" d="M215 0v1384h86v-1306h672v-78h-758z" />
<glyph unicode="M" horiz-adv-x="1520" d="M215 0v1384h133l414 -860l409 860h134v-1384h-86v1292l-428 -884h-66l-424 884v-1292h-86z" />
<glyph unicode="N" horiz-adv-x="1362" d="M215 0v1384h123l723 -1241v1241h86v-1384h-98l-748 1284v-1284h-86z" />
<glyph unicode="O" horiz-adv-x="1364" d="M152 692q0 164 28 297.5t91 227.5t164 145t247 51q147 0 248 -50.5t163.5 -144t90.5 -227t28 -299.5t-28 -299.5t-90.5 -227t-163.5 -144t-248 -50.5q-146 0 -247 51t-164 144.5t-91 227t-28 298.5zM246 692q0 -151 22.5 -270t73.5 -201t134.5 -125t205.5 -43 q121 0 204.5 42.5t135 124.5t74 200.5t22.5 271.5t-22.5 272t-74 200.5t-135 124t-204.5 42.5q-122 0 -205 -41.5t-134.5 -122.5t-74 -200.5t-22.5 -274.5z" />
<glyph unicode="P" horiz-adv-x="1124" d="M215 0v1384h356q121 0 204 -31t134.5 -86.5t74 -132.5t22.5 -169q0 -128 -29.5 -215t-87.5 -140t-144 -76.5t-198 -23.5h-246v-510h-86zM301 588h242q97 0 167 18.5t114.5 61.5t65.5 114t21 176q0 98 -24 164.5t-68 107.5t-107.5 59t-142.5 18h-268v-719z" />
<glyph unicode="Q" horiz-adv-x="1364" d="M152 692q0 171 30.5 305t95 226.5t165 141t241.5 48.5q272 0 400 -180t128 -541q0 -159 -25.5 -287t-82.5 -220.5t-148.5 -147t-224.5 -66.5q18 -46 43.5 -82.5t62.5 -61.5t85.5 -38.5t111.5 -13.5q18 0 41 2.5t45 6.5t41 9t31 10l25 -75q-42 -17 -90 -26t-93 -9 q-81 0 -144.5 18.5t-112 54.5t-83 87.5t-57.5 117.5q-120 9 -211 54.5t-151.5 133.5t-91.5 220t-31 313zM246 692q0 -151 22.5 -270t73.5 -201t134.5 -125t205.5 -43q121 0 204.5 42.5t135 124.5t74 200.5t22.5 271.5t-22.5 272t-74 200.5t-135 124t-204.5 42.5 q-122 0 -205 -42.5t-134.5 -124t-74 -200.5t-22.5 -272z" />
<glyph unicode="R" horiz-adv-x="1190" d="M215 0v1384h356q112 0 196 -20.5t140.5 -65.5t84.5 -117t28 -175q0 -89 -18 -154t-54.5 -111.5t-91.5 -75.5t-129 -44l377 -621h-107l-356 606h-340v-606h-86zM301 684h268q103 0 171.5 18t110 57t58.5 100.5t17 148.5q0 76 -17 132.5t-58 93.5t-109.5 55t-172.5 18h-268 v-623z" />
<glyph unicode="S" horiz-adv-x="1225" d="M127 254l82 41q18 -41 50.5 -84t81 -78t114 -57.5t149.5 -22.5q90 0 161 18.5t120.5 55.5t75.5 92t26 129q0 65 -16 112.5t-59 85t-118 67.5t-192 61q-137 35 -223 68t-135.5 74t-67.5 95.5t-18 132.5q0 81 26.5 149t80 116.5t134.5 76t191 27.5q157 0 265.5 -64.5 t180.5 -185.5l-80 -47q-25 45 -58 84.5t-77 68.5t-100 45.5t-127 16.5q-90 0 -154.5 -20.5t-106.5 -58t-61.5 -90.5t-19.5 -118q0 -59 12.5 -99t52.5 -70.5t114 -57t196 -57.5q118 -31 203.5 -64.5t140.5 -80t81.5 -111t26.5 -156.5q0 -101 -35.5 -172.5t-98 -117 t-146.5 -66.5t-181 -21q-102 0 -179 21t-135 58.5t-100.5 89.5t-76.5 114z" />
<glyph unicode="T" horiz-adv-x="1163" d="M47 1307v77h1069v-77h-491v-1307h-86v1307h-492z" />
<glyph unicode="U" horiz-adv-x="1352" d="M205 578v806h86v-786q0 -162 18 -268.5t62.5 -169t119 -88t187.5 -25.5q111 0 185 24.5t118 87t62 168t18 267.5v790h86v-806q0 -172 -25 -288.5t-80.5 -188t-144.5 -102t-217 -30.5q-139 0 -230.5 32.5t-146 105t-76.5 188.5t-22 283z" />
<glyph unicode="V" horiz-adv-x="1206" d="M76 1384h92l432 -1273l438 1273h92l-485 -1384h-92z" />
<glyph unicode="W" horiz-adv-x="1681" d="M92 1384h90l295 -1286l297 1286h127l307 -1296l295 1296h86l-319 -1384h-129l-303 1300l-301 -1300h-125z" />
<glyph unicode="X" horiz-adv-x="1130" d="M78 0l442 696l-430 688h94l385 -624l389 624h95l-439 -688l441 -696h-97l-393 633l-397 -633h-90z" />
<glyph unicode="Y" horiz-adv-x="1106" d="M61 1384h93l399 -768l399 768h92l-448 -843v-541h-86v537z" />
<glyph unicode="Z" horiz-adv-x="1180" d="M113 0v82l829 1225h-799v77h893v-79l-831 -1227h848v-78h-940z" />
<glyph unicode="[" horiz-adv-x="846" d="M236 -395v1884h426v-78h-345v-1728h345v-78h-426z" />
<glyph unicode="\" horiz-adv-x="913" d="M66 1520h79l740 -1819h-78z" />
<glyph unicode="]" horiz-adv-x="846" d="M184 -317h344v1728h-344v78h426v-1884h-426v78z" />
<glyph unicode="^" horiz-adv-x="1186" d="M164 594l375 790h110l373 -790h-90l-338 717l-340 -717h-90z" />
<glyph unicode="_" horiz-adv-x="1024" d="M-10 -174h1044v-82h-1044v82z" />
<glyph unicode="`" horiz-adv-x="1126" d="M383 1569h119l194 -361h-67z" />
<glyph unicode="a" horiz-adv-x="1061" d="M133 295q0 68 16 126.5t63.5 103.5t134 76t226.5 44l215 21v55q0 72 -13 125.5t-45.5 89t-86.5 53t-135 17.5q-65 0 -111.5 -11t-79.5 -30t-55 -44.5t-39 -54.5l-63 41q24 40 54.5 72t71.5 54t95.5 34t126.5 12q102 0 172 -21.5t113 -66.5t62 -114t19 -164v-713h-86v174 q-49 -45 -94 -82.5t-90 -64.5t-93 -42.5t-103 -15.5q-74 0 -126 21.5t-85 63t-48.5 102.5t-15.5 139zM223 299q0 -134 44.5 -195t146.5 -61q35 0 68.5 7.5t75 31t96.5 66t134 112.5v332l-210 -21q-110 -11 -179 -32t-108 -54t-53.5 -79t-14.5 -107z" />
<glyph unicode="b" horiz-adv-x="1130" d="M195 0v1489h86v-565q65 71 146 113t169 42q110 0 185 -44.5t121.5 -119.5t66.5 -174t20 -209q0 -138 -26.5 -243t-77.5 -176.5t-125.5 -107.5t-171.5 -36q-72 0 -152 39.5t-155 116.5v-125h-86zM281 217q83 -85 161 -129.5t146 -44.5q67 0 124 27.5t98.5 86t65 150.5 t23.5 221q0 122 -21.5 212t-61 149t-97 88t-129.5 29q-79 0 -154 -45.5t-155 -129.5v-614z" />
<glyph unicode="c" horiz-adv-x="1001" d="M141 520q0 128 22.5 231.5t72 176t128.5 112t191 39.5q115 0 193 -50.5t135 -158.5l-72 -39q-23 45 -48 78t-56 54.5t-69 32t-87 10.5q-163 0 -241.5 -119.5t-78.5 -372.5q0 -110 18 -197.5t57 -148t100.5 -93t148.5 -32.5q57 0 99 13.5t73.5 37.5t54.5 56t43 69l70 -43 q-51 -105 -133.5 -156t-206.5 -51q-118 0 -197.5 42.5t-127.5 117t-68.5 175t-20.5 216.5z" />
<glyph unicode="d" horiz-adv-x="1130" d="M141 516q0 111 23 212.5t71 179.5t122 124.5t175 46.5q49 0 90.5 -9.5t79.5 -26t74 -39.5t74 -50v535h86v-1489h-86v125q-34 -33 -73 -61.5t-81 -49.5t-85.5 -33t-86.5 -12q-188 0 -285.5 135t-97.5 412zM231 520q0 -236 72 -356.5t217 -120.5q46 0 89.5 13.5t84.5 37 t79.5 55t76.5 68.5v645q-91 75 -167.5 109.5t-147.5 34.5q-73 0 -129.5 -36t-95.5 -100.5t-59 -154t-20 -195.5z" />
<glyph unicode="e" horiz-adv-x="1020" d="M141 516q0 141 22.5 247t70.5 176t123 105t180 35q186 0 274 -117t88 -346v-71h-668q0 -141 15.5 -237.5t50 -155t91 -84t138.5 -25.5q48 0 87.5 8t74 27t64.5 50.5t59 78.5l66 -45q-27 -45 -58.5 -80.5t-73 -60.5t-95 -38.5t-124.5 -13.5q-98 0 -170.5 29t-120 94 t-71 169.5t-23.5 254.5zM231 618h582q-2 108 -20 182t-52.5 119.5t-85.5 66t-118 20.5q-78 0 -134 -23t-92.5 -70.5t-56 -120.5t-23.5 -174z" />
<glyph unicode="f" horiz-adv-x="606" d="M51 971v78h174v131q0 88 13.5 152t44.5 106t80.5 62t121.5 20q31 0 60.5 -4.5t56.5 -12t49.5 -17.5t38.5 -20l-37 -69q-14 10 -34 18.5t-43 15.5t-47.5 11t-47.5 4q-45 0 -77.5 -13t-53 -44.5t-30 -83.5t-9.5 -131v-125h254v-78h-254v-971h-86v971h-174z" />
<glyph unicode="g" horiz-adv-x="1130" d="M141 535q0 123 25.5 223t75.5 171.5t125.5 110.5t175.5 39q83 0 159.5 -34.5t147.5 -90.5v95h86v-1024q0 -119 -22.5 -199t-67.5 -129.5t-112 -70.5t-156 -21q-65 0 -120 9t-99.5 23.5t-79 33.5t-56.5 40l47 62q44 -44 121 -69.5t187 -25.5q76 0 128 19.5t84 61t46 107 t14 157.5v131q-31 -31 -68.5 -59t-79.5 -49t-88 -33.5t-94 -12.5q-193 0 -286 131.5t-93 403.5zM231 539q0 -53 2.5 -108t12.5 -106.5t29 -97t51.5 -79.5t80.5 -54t117 -20q52 0 99.5 16.5t88.5 42t75.5 55.5t62.5 58v622q-89 66 -161 102t-148 36q-153 0 -231.5 -120 t-78.5 -347z" />
<glyph unicode="h" horiz-adv-x="1110" d="M195 0v1489h86v-617q103 95 194 151t178 56q83 0 135.5 -25t82.5 -73.5t41.5 -119t11.5 -161.5v-700h-86v686q0 97 -11 158.5t-34 96.5t-58.5 47.5t-83.5 12.5q-75 0 -167 -53.5t-203 -165.5v-782h-86z" />
<glyph unicode="i" horiz-adv-x="475" d="M166 1294q0 37 16.5 54.5t55.5 17.5q40 0 55.5 -16.5t15.5 -55.5q0 -42 -16.5 -56.5t-54.5 -14.5q-41 0 -56.5 18.5t-15.5 52.5zM195 0v1049h86v-1049h-86z" />
<glyph unicode="j" horiz-adv-x="481" d="M-137 -365l22 72q35 -14 72.5 -21.5t79.5 -7.5q44 0 75 13.5t51 45t29 82.5t9 126v1104h86v-1112q0 -84 -12 -146.5t-42 -103.5t-79.5 -61.5t-124.5 -20.5q-44 0 -83.5 7.5t-82.5 22.5zM172 1294q0 37 17 54.5t55 17.5q40 0 55.5 -16.5t15.5 -55.5q0 -42 -16.5 -56.5 t-54.5 -14.5q-41 0 -56.5 18.5t-15.5 52.5z" />
<glyph unicode="k" horiz-adv-x="997" d="M195 0v1489h86v-1016l514 576h108l-436 -482l459 -567h-111l-407 510l-127 -139v-371h-86z" />
<glyph unicode="l" horiz-adv-x="508" d="M211 0v1489h86v-1489h-86z" />
<glyph unicode="m" horiz-adv-x="1634" d="M195 0v1049h86v-177q91 97 173.5 152t163.5 55q105 0 165 -51.5t75 -165.5q48 54 89.5 94.5t82.5 68t84 41t94 13.5q78 0 125 -28.5t72.5 -79t34 -120t8.5 -151.5v-700h-86v672q0 108 -9.5 173t-29 99.5t-49 45.5t-70.5 11q-45 0 -83 -13t-76.5 -40t-82 -68.5 t-98.5 -97.5v-782h-86v686q0 100 -9.5 161.5t-30 95.5t-52 46t-76.5 12q-39 0 -78 -16.5t-79.5 -45.5t-83 -69t-88.5 -88v-782h-86z" />
<glyph unicode="n" horiz-adv-x="1110" d="M195 0v1049h86v-177q54 51 103 89.5t94.5 65t90 39.5t90.5 13q81 0 132.5 -25t81 -73.5t40.5 -119t11 -161.5v-700h-86v686q0 97 -11 158.5t-34 96.5t-58.5 47.5t-83.5 12.5q-75 0 -167 -53.5t-203 -165.5v-782h-86z" />
<glyph unicode="o" horiz-adv-x="1124" d="M141 522q0 119 22.5 221t72.5 176.5t130.5 117t196.5 42.5q111 0 190.5 -38.5t130.5 -111t75 -175.5t24 -232q0 -125 -22.5 -226.5t-72.5 -174.5t-130 -112.5t-195 -39.5q-114 0 -194.5 39.5t-131 112t-73.5 174.5t-23 227zM231 522q0 -242 80 -360.5t252 -118.5 q167 0 248.5 117t81.5 362q0 244 -78 364t-252 120q-89 0 -152 -31.5t-103 -93t-58.5 -151.5t-18.5 -208z" />
<glyph unicode="p" horiz-adv-x="1130" d="M195 -395v1444h86v-125q65 71 146 113t169 42q110 0 185 -44.5t121.5 -119.5t66.5 -174t20 -209q0 -138 -26.5 -243t-77.5 -176.5t-125.5 -107.5t-171.5 -36q-72 0 -152 39.5t-155 116.5v-520h-86zM281 217q83 -85 161 -129.5t146 -44.5q67 0 124 27.5t98.5 86t65 150.5 t23.5 221q0 122 -21.5 212t-61 149t-97 88t-129.5 29q-79 0 -154 -44t-155 -131v-614z" />
<glyph unicode="q" horiz-adv-x="1130" d="M141 516q0 111 23 212.5t71 179.5t122 124.5t175 46.5q49 0 90.5 -9.5t79.5 -26t74 -39.5t74 -50v95h86v-1444h-86v520q-34 -33 -73 -61.5t-81 -49.5t-85.5 -33t-86.5 -12q-188 0 -285.5 135t-97.5 412zM231 520q0 -236 72 -356.5t217 -120.5q46 0 89.5 13.5t84.5 37 t79.5 55t76.5 68.5v645q-91 75 -167.5 109.5t-147.5 34.5q-73 0 -129.5 -36t-95.5 -100.5t-59 -154t-20 -195.5z" />
<glyph unicode="r" horiz-adv-x="782" d="M195 0v1049h86v-191q54 55 98 94t84 64t79 37t83 12q26 0 48.5 -5t45.5 -16l-23 -77q-21 9 -36 12.5t-35 3.5q-42 0 -77 -9.5t-73 -33.5t-84 -66t-110 -106v-768h-86z" />
<glyph unicode="s" horiz-adv-x="956" d="M135 152l72 45q15 -32 38 -59.5t55.5 -47.5t75.5 -31.5t99 -11.5q64 0 114 10t83.5 33.5t51 63.5t17.5 100q0 48 -11 83t-42.5 62.5t-88 50.5t-146.5 48q-90 24 -148.5 50t-92 60.5t-47 81t-13.5 113.5q0 52 19.5 101.5t60 88.5t103.5 62.5t150 23.5q71 0 123 -15.5 t90 -41t63.5 -60t43.5 -71.5l-74 -39q-38 78 -94 113.5t-148 35.5q-64 0 -111 -14.5t-78 -41t-46.5 -63t-15.5 -81.5q0 -47 8.5 -80.5t34.5 -59t74 -46t126 -42.5q111 -30 178.5 -61t105 -68t50 -82.5t12.5 -105.5q0 -66 -20 -119t-62 -90.5t-108.5 -57.5t-159.5 -20 q-82 0 -141.5 18.5t-100 46.5t-64.5 60t-36 58z" />
<glyph unicode="t" horiz-adv-x="719" d="M63 971v78h166v292h86v-292h289v-78h-289v-656q0 -83 8 -136t28 -83t53 -41.5t83 -11.5q18 0 39 2.5t41.5 7t39.5 10t34 11.5l21 -70q-35 -14 -80.5 -24.5t-96.5 -10.5q-77 0 -126.5 18t-78 58.5t-40 107t-11.5 164.5v654h-166z" />
<glyph unicode="u" horiz-adv-x="1110" d="M186 348v701h86v-687q0 -98 11 -159t34 -96t58.5 -47.5t83.5 -12.5q151 0 370 219v783h86v-1049h-86v176q-103 -95 -194 -151t-178 -56q-83 0 -135.5 25t-82.5 73.5t-41.5 119t-11.5 161.5z" />
<glyph unicode="v" horiz-adv-x="975" d="M66 1049h90l333 -959l330 959h90l-370 -1049h-103z" />
<glyph unicode="w" horiz-adv-x="1384" d="M100 1049h88l195 -922l266 922h92l269 -922l190 922h84l-229 -1049h-90l-271 938l-272 -938h-92z" />
<glyph unicode="x" horiz-adv-x="918" d="M66 0l350 526l-342 523h92l299 -461l295 461h92l-342 -519l340 -530h-96l-293 465l-303 -465h-92z" />
<glyph unicode="y" horiz-adv-x="995" d="M12 -362l31 73q22 -14 53.5 -21t59.5 -7q44 0 79.5 16t65.5 47.5t55.5 79t49.5 111.5l45 118l-383 994h92l336 -893l340 893h92l-457 -1164q-30 -77 -63.5 -130t-72 -86.5t-82 -48.5t-93.5 -15q-19 0 -40 2t-41.5 6.5t-37.5 10.5t-29 14z" />
<glyph unicode="z" horiz-adv-x="938" d="M106 0v66l607 905h-594v78h696v-66l-606 -905h622v-78h-725z" />
<glyph unicode="{" horiz-adv-x="973" d="M102 526v74h19q91 0 154 19.5t102 63.5t56.5 114t17.5 172v194q0 80 27 145.5t76 112.5t118 73t153 26h49v-74h-40q-146 0 -224 -76.5t-78 -224.5v-178q0 -95 -17 -166t-50 -120t-81.5 -78.5t-111.5 -41.5q64 -9 112.5 -36.5t81.5 -76.5t49.5 -121t16.5 -169v-178 q0 -76 16 -133t52 -94.5t93.5 -56t140.5 -18.5h40v-73h-49q-183 0 -278.5 87.5t-95.5 268.5v193q0 100 -16 170.5t-54 115.5t-101.5 65.5t-158.5 20.5h-19z" />
<glyph unicode="|" horiz-adv-x="848" d="M385 -395v1915h78v-1915h-78z" />
<glyph unicode="}" horiz-adv-x="973" d="M98 -322h41q82 0 139.5 18.5t93.5 56t52 94.5t16 133v178q0 97 16.5 169t49.5 121t81.5 76.5t112.5 36.5q-63 12 -111.5 41.5t-81.5 78.5t-50 120t-17 166v178q0 148 -77.5 224.5t-223.5 76.5h-41v74h49q85 0 154 -26t118 -73t76 -112.5t27 -145.5v-194q0 -102 17 -172 t56 -114t102 -63.5t155 -19.5h18v-74h-18q-95 0 -158.5 -20.5t-101.5 -65.5t-54 -115.5t-16 -170.5v-193q0 -181 -95.5 -268.5t-279.5 -87.5h-49v73z" />
<glyph unicode="~" horiz-adv-x="1427" d="M164 649v90q71 56 141.5 92.5t145.5 36.5q60 0 128 -24.5t138.5 -54t139 -54t128.5 -24.5q31 0 61 6.5t63 23t70.5 43.5t84.5 68v-98q-42 -33 -76.5 -56t-66.5 -37.5t-65 -21t-71 -6.5q-39 0 -84 11.5t-93 29.5t-96.5 38t-94.5 38t-88 29.5t-76 11.5q-35 0 -66 -7.5 t-64 -24t-71.5 -44t-87.5 -66.5z" />
<glyph unicode="&#xa0;" />
<glyph unicode="&#xa1;" d="M182 1008q0 40 21 55.5t61 15.5q48 0 64 -20t16 -51q0 -39 -18 -55.5t-62 -16.5q-45 0 -63.5 17t-18.5 55zM213 -395l14 1102h68l18 -1102h-100z" />
<glyph unicode="&#xa2;" horiz-adv-x="1001" d="M141 520q0 128 22.5 231.5t72 176t128.5 112t191 39.5q37 0 72 -6l43 215h78l-50 -235q57 -23 102.5 -68t82.5 -115l-72 -39q-28 53 -57.5 88.5t-69.5 57.5l-190 -930q14 -2 29 -3t32 -1q57 0 99 13.5t73.5 37.5t54.5 56t43 69l70 -43q-51 -105 -133.5 -156t-206.5 -51 q-41 0 -78 6l-47 -235h-76l52 252q-75 24 -125.5 74t-81.5 119t-44.5 154.5t-13.5 180.5zM231 514q0 -173 44.5 -287t144.5 -159l190 931q-28 7 -65 7q-158 0 -236 -119.5t-78 -372.5z" />
<glyph unicode="&#xa3;" horiz-adv-x="1247" d="M125 0v78q40 9 78.5 47t68.5 102.5t48 155.5t18 205h-188v78h186q-3 47 -15.5 89.5t-26.5 85.5t-25 90t-11 103q0 91 32.5 161.5t90.5 119t138 73.5t175 25q55 0 107.5 -9.5t100.5 -33t92 -62.5t83 -98l-69 -53q-25 39 -56 71.5t-70 56t-85 37t-101 13.5 q-87 0 -152.5 -23t-109 -63t-65 -94.5t-21.5 -118.5q0 -47 10 -91.5t23 -89.5t25 -91.5t16 -97.5h379v-78h-377q0 -105 -15 -188.5t-39.5 -146.5t-56 -106.5t-65.5 -68.5h862v-78h-985z" />
<glyph unicode="&#xa4;" horiz-adv-x="1247" d="M158 1001l51 52l182 -185q48 41 107 62.5t125 21.5t124.5 -21.5t106.5 -62.5l184 185l52 -52l-185 -184q38 -48 60 -106t22 -123q0 -66 -23 -124.5t-61 -105.5l184 -184l-51 -51l-184 182q-48 -37 -106 -58.5t-123 -21.5q-66 0 -124 21.5t-106 58.5l-182 -182l-51 51 l182 182q-38 48 -60 107t-22 125q0 65 21 124t59 105zM338 588q0 -59 22.5 -111t61 -90.5t90.5 -61t111 -22.5t111 22.5t91 61t61.5 90.5t22.5 111t-22.5 111t-61.5 91t-91 61.5t-111 22.5t-111 -22.5t-90.5 -61.5t-61 -91t-22.5 -111z" />
<glyph unicode="&#xa5;" horiz-adv-x="1247" d="M86 1384h94l447 -710l440 710h94l-446 -710h399v-74h-440l-8 -12v-166h448v-74h-448v-348h-86v348h-443v74h443v164l-9 14h-434v74h398z" />
<glyph unicode="&#xa6;" horiz-adv-x="848" d="M385 201h78v-596h-78v596zM385 924v596h78v-596h-78z" />
<glyph unicode="&#xa7;" horiz-adv-x="1053" d="M125 545q0 53 20.5 98.5t56.5 87t86 79.5t109 75q-55 35 -92.5 66.5t-60 63t-32 65.5t-9.5 75q0 54 21 101.5t64 82t109 54.5t156 20q64 0 116.5 -10t94.5 -28.5t75.5 -44.5t61.5 -58l-67 -55q-16 22 -41.5 43.5t-60 38t-78.5 26.5t-97 10q-128 0 -196 -43t-68 -137 q0 -22 3 -41t14.5 -38.5t34.5 -42t63.5 -52t101 -67.5t147.5 -89q72 -42 123 -79.5t84 -75.5t48.5 -79.5t15.5 -92.5q0 -49 -13 -90t-44.5 -79t-83 -77.5t-128.5 -85.5q61 -39 100 -72t62 -65t32 -65t9 -70q0 -66 -25.5 -115.5t-72 -81.5t-112 -48t-146.5 -16q-59 0 -112 11 t-98 30.5t-80 44.5t-56 54l63 55q38 -39 77.5 -62t76 -35.5t69 -16t56.5 -3.5q76 0 128 12.5t83.5 36.5t45 58t13.5 76q0 22 -4 41.5t-16.5 39.5t-36 42t-63 50.5t-97.5 64.5t-139 83q-89 51 -146 96.5t-89 86t-44 77t-12 70.5zM217 553q0 -23 3.5 -43.5t15.5 -41.5 t36.5 -45t66 -55t103.5 -69.5t150 -89.5q78 47 126 83.5t74.5 68.5t35 62.5t8.5 65.5q0 26 -3.5 48.5t-16 45.5t-37 47.5t-65.5 55t-102 68.5t-147 88q-49 -31 -94 -63t-79 -67t-54.5 -74.5t-20.5 -84.5z" />
<glyph unicode="&#xa8;" horiz-adv-x="1126" d="M319 1288q0 34 14.5 52t57.5 18q45 0 58.5 -17.5t13.5 -52.5q0 -38 -14 -57t-58 -19t-58 22.5t-14 53.5zM666 1288q0 34 14 52t57 18q45 0 58.5 -17.5t13.5 -52.5q0 -38 -14 -57t-58 -19t-57.5 22.5t-13.5 53.5z" />
<glyph unicode="&#xa9;" horiz-adv-x="1909" d="M150 610q0 116 28.5 221t81 194t126 161t163 122.5t192 77.5t213.5 27q117 0 222 -28.5t194 -81t160.5 -126t122 -162.5t77.5 -191.5t27 -213.5q0 -117 -28.5 -222t-81 -194.5t-126 -162t-162.5 -123t-191.5 -78t-213.5 -27.5q-116 0 -221 29t-194 81.5t-161 126.5 t-122.5 163.5t-78 192.5t-27.5 214zM227 610q0 -102 25.5 -195.5t73 -175t113.5 -148.5t146.5 -114.5t174 -73.5t194.5 -26q102 0 195 26.5t173.5 74t146.5 114.5t112.5 148.5t72 175t25.5 194.5t-25.5 194.5t-72 174.5t-112.5 147t-146.5 113.5t-174 73.5t-194.5 26 t-194.5 -25.5t-174 -72.5t-146.5 -113t-113.5 -147t-73 -175t-25.5 -196zM610 612q0 104 22.5 186.5t66.5 140t110.5 88t155.5 30.5q61 0 110.5 -16.5t87 -42t63 -58t38.5 -63.5l-72 -39q-12 26 -30.5 52t-46 46.5t-65 33.5t-87.5 13q-72 0 -123 -25t-83 -72.5t-46.5 -116.5 t-14.5 -157q0 -90 13.5 -158.5t44.5 -115t81 -70.5t123 -24q50 0 89.5 12.5t69.5 35t51 52.5t36 66l70 -33q-14 -38 -39 -75t-63.5 -66.5t-90 -47.5t-118.5 -18q-177 0 -265 108t-88 334z" />
<glyph unicode="&#xaa;" horiz-adv-x="727" d="M92 905q0 67 21.5 110.5t56 69.5t77.5 37.5t85 14.5l198 12v39q0 40 -9.5 69.5t-31 48.5t-57.5 28t-90 9q-40 0 -70 -8.5t-52 -22t-37 -30t-25 -33.5l-60 39q17 26 40 49t53.5 40t68 26.5t82.5 9.5q74 0 124.5 -13t82 -41.5t45.5 -75t14 -112.5v-458h-78v104 q-26 -23 -54 -45.5t-58.5 -40t-63.5 -28.5t-67 -11q-54 0 -91 15.5t-60.5 43.5t-33.5 67t-10 87zM174 905q0 -35 5 -61.5t19 -44.5t37.5 -27.5t61.5 -9.5q32 0 64.5 14t62.5 34t57 42.5t49 40.5v190l-180 -12q-91 -6 -133.5 -45.5t-42.5 -120.5z" />
<glyph unicode="&#xab;" horiz-adv-x="1014" d="M82 524l367 471h94l-367 -471l367 -471h-94zM487 524l367 471h94l-366 -471l366 -471h-94z" />
<glyph unicode="&#xac;" horiz-adv-x="1427" d="M195 805v78h1038v-527h-76v449h-962z" />
<glyph unicode="&#xad;" horiz-adv-x="868" d="M123 485v82h622v-82h-622z" />
<glyph unicode="&#xae;" horiz-adv-x="1909" d="M150 610q0 116 28.5 221t81 194t126 161t163 122.5t192 77.5t213.5 27q117 0 222 -28.5t194 -81t160.5 -126t122 -162.5t77.5 -191.5t27 -213.5q0 -117 -28.5 -222t-81 -194.5t-126 -162t-162.5 -123t-191.5 -78t-213.5 -27.5q-116 0 -221 29t-194 81.5t-161 126.5 t-122.5 163.5t-78 192.5t-27.5 214zM227 610q0 -102 25.5 -195.5t73 -175t113.5 -148.5t146.5 -114.5t174 -73.5t194.5 -26q102 0 195 26.5t173.5 74t146.5 114.5t112.5 148.5t72 175t25.5 194.5t-25.5 194.5t-72 174.5t-112.5 147t-146.5 113.5t-174 73.5t-194.5 26 t-194.5 -25.5t-174 -72.5t-146.5 -113t-113.5 -147t-73 -175t-25.5 -196zM694 201v850h252q149 0 217 -57.5t68 -178.5q0 -59 -14.5 -102t-40.5 -72t-62.5 -46t-81.5 -24l230 -370h-97l-221 364h-168v-364h-82zM776 639h182q95 0 141 39t46 137q0 89 -51.5 125.5 t-155.5 36.5h-162v-338z" />
<glyph unicode="&#xaf;" horiz-adv-x="1126" d="M289 1255v82h549v-82h-549z" />
<glyph unicode="&#xb0;" horiz-adv-x="860" d="M180 1241q0 51 20 96.5t54.5 79t79.5 53t96 19.5q53 0 98.5 -20t79.5 -53.5t53 -78.5t19 -96q0 -53 -20 -99t-54 -80t-79 -53.5t-95 -19.5q-51 0 -97 19.5t-80.5 53.5t-54.5 80t-20 99zM258 1241q0 -36 13.5 -67.5t37.5 -55.5t55.5 -37.5t67.5 -13.5t67 13.5t54 37t36 55 t13 66.5t-13 66.5t-36 55t-54 37t-67 13.5q-37 0 -68.5 -14t-55 -37.5t-37 -54t-13.5 -64.5z" />
<glyph unicode="&#xb1;" horiz-adv-x="1427" d="M195 0v78h1038v-78h-1038zM195 791v77h477v478h78v-478h483v-77h-483v-484h-78v484h-477z" />
<glyph unicode="&#xb2;" horiz-adv-x="877" d="M135 686v76q33 24 70 51t72.5 53t67.5 50l56 42q78 58 127 100.5t76.5 79.5t37 72.5t9.5 79.5q0 36 -9.5 65t-34.5 49t-67 31t-106 11q-47 0 -83 -9t-64 -26t-49 -41t-37 -55l-66 43q17 28 40 57t58 52.5t84.5 38t118.5 14.5q68 0 123.5 -13t95 -41t61 -71.5t21.5 -104.5 q0 -51 -15 -95t-36 -78.5t-44.5 -59.5t-41.5 -39q-47 -38 -90 -70.5t-86 -63.5t-87 -61.5t-93 -62.5h532v-74h-641z" />
<glyph unicode="&#xb3;" horiz-adv-x="877" d="M121 788l61 48q44 -57 108 -85t126 -28q115 0 174 50t59 138q0 40 -10 71.5t-35 53.5t-66.5 33.5t-105.5 11.5h-96v74h84q61 0 102.5 11.5t67.5 31.5t37.5 46t11.5 56q0 31 -11.5 57.5t-36.5 46t-66 31t-99 11.5q-42 0 -76 -6t-63.5 -20t-55 -36.5t-49.5 -56.5l-59 39 q42 68 118.5 111t182.5 43q81 0 137.5 -16t92.5 -45t52.5 -69.5t16.5 -89.5q0 -61 -39 -109.5t-123 -70.5q81 -17 127.5 -71.5t46.5 -139.5q0 -62 -21.5 -110.5t-62.5 -81.5t-99.5 -50.5t-131.5 -17.5q-35 0 -75.5 7t-80.5 23.5t-77.5 43t-65.5 65.5z" />
<glyph unicode="&#xb4;" horiz-adv-x="1126" d="M430 1208l195 361h118l-245 -361h-68z" />
<glyph unicode="&#xb5;" horiz-adv-x="1112" d="M195 -395v1444h86v-869q58 -66 122 -99.5t152 -33.5q75 0 145.5 46.5t130.5 131.5v824h87v-1049h-78l-9 127q-25 -32 -54 -60.5t-63.5 -50t-75.5 -34.5t-89 -13q-85 0 -148 28t-120 85v-477h-86z" />
<glyph unicode="&#xb6;" horiz-adv-x="1194" d="M78 1092q0 90 35 163.5t96 125.5t142 80t173 28h588v-78h-197v-1806h-86v1806h-227v-1806h-86v1079q-69 0 -146 20t-142 67.5t-107.5 126t-42.5 194.5z" />
<glyph unicode="&#xb7;" d="M188 748q0 71 74 71q40 0 58 -16.5t18 -54.5q0 -42 -19 -57t-57 -15q-40 0 -57 18.5t-17 53.5z" />
<glyph unicode="&#xb8;" horiz-adv-x="1126" d="M289 -346l26 57q45 -18 91.5 -29.5t97.5 -11.5q78 0 115.5 33t37.5 84q0 30 -10.5 53t-34 39t-61.5 25.5t-92 11.5l49 96h63l-24 -51q94 -12 141 -51.5t47 -118.5q0 -48 -19.5 -83t-52 -58t-74 -34t-85.5 -11q-25 0 -55 4t-59.5 10.5t-56 15.5t-44.5 19z" />
<glyph unicode="&#xb9;" horiz-adv-x="877" d="M182 1276v63q122 3 189.5 47.5t87.5 124.5h61v-825h-78v672q-21 -21 -51.5 -36t-65 -25.5t-71.5 -15.5t-72 -5z" />
<glyph unicode="&#xba;" horiz-adv-x="809" d="M113 1051q0 76 14.5 142t48.5 115t90.5 77t139.5 28q82 0 137.5 -28.5t89.5 -78t48.5 -115.5t14.5 -140t-14.5 -139.5t-48.5 -114t-89.5 -77t-137.5 -28.5q-83 0 -139 28t-90 77t-49 114t-15 140zM195 1051q0 -52 6 -103.5t27 -93t62.5 -67t112.5 -25.5t113 25.5t63.5 67 t28 93t6.5 103.5t-6 104t-28 94t-63.5 68t-113.5 26t-113.5 -26t-62.5 -68t-26.5 -94t-5.5 -104z" />
<glyph unicode="&#xbb;" horiz-adv-x="1014" d="M66 53l366 471l-366 471h94l366 -471l-366 -471h-94zM471 53l367 471l-367 471h94l367 -471l-367 -471h-94z" />
<glyph unicode="&#xbc;" horiz-adv-x="1796" d="M182 1160v63q122 3 189.5 47.5t87.5 124.5h61v-825h-78v672q-21 -21 -51.5 -36t-65 -25.5t-71.5 -15.5t-72 -5zM432 -51l826 1487h77l-827 -1487h-76zM959 200v67l495 555h45v-553h140v-69h-140v-199h-77v199h-463zM1053 269h369v416z" />
<glyph unicode="&#xbd;" horiz-adv-x="1796" d="M111 1160v63q122 3 189.5 47.5t87.5 124.5h61v-825h-78v672q-21 -21 -51.5 -36t-65 -25.5t-71.5 -15.5t-72 -5zM348 -51l826 1487h77l-827 -1487h-76zM1055 1v76q33 24 70 51t72.5 53t67.5 50l56 42q78 58 127 100.5t76.5 79.5t37 72.5t9.5 79.5q0 36 -9.5 65t-34.5 49 t-67 31t-106 11q-47 0 -83 -9t-64 -26t-49 -41t-37 -55l-66 43q17 28 40 57t58 52.5t84.5 38t118.5 14.5q68 0 123.5 -13t95 -41t61 -71.5t21.5 -104.5q0 -51 -15 -95t-36 -78.5t-44.5 -59.5t-41.5 -39q-47 -38 -90 -70.5t-86 -63.5t-87 -61.5t-93 -62.5h532v-74h-641z" />
<glyph unicode="&#xbe;" horiz-adv-x="1796" d="M162 672l61 48q44 -57 108 -85t126 -28q115 0 174 50t59 138q0 40 -10 71.5t-35 53.5t-66.5 33.5t-105.5 11.5h-96v74h84q61 0 102.5 11.5t67.5 31.5t37.5 46t11.5 56q0 31 -11.5 57.5t-36.5 46t-66 31t-99 11.5q-42 0 -76 -6t-63.5 -20t-55 -36.5t-49.5 -56.5l-59 39 q42 68 118.5 111t182.5 43q81 0 137.5 -16t92.5 -45t52.5 -69.5t16.5 -89.5q0 -61 -39 -109.5t-123 -70.5q81 -17 127.5 -71.5t46.5 -139.5q0 -62 -21.5 -110.5t-62.5 -81.5t-99.5 -50.5t-131.5 -17.5q-35 0 -75.5 7t-80.5 23.5t-77.5 43t-65.5 65.5zM538 -51l826 1487h77 l-827 -1487h-76zM1080 200v67l495 555h45v-553h140v-69h-140v-199h-77v199h-463zM1174 269h369v416z" />
<glyph unicode="&#xbf;" horiz-adv-x="1026" d="M147 -39q0 82 24 149.5t75 129t130 121t189 124.5v236h86v-275q-118 -66 -197.5 -121.5t-127.5 -111t-68 -115.5t-20 -135q0 -64 20.5 -115.5t61.5 -88t101.5 -56.5t141.5 -20q63 0 111.5 12.5t84.5 32t60 43.5t37 47l66 -45q-18 -32 -51 -62.5t-79 -54t-103 -37.5 t-124 -14q-90 0 -167 22.5t-132.5 67t-87 111t-31.5 155.5zM526 1001q0 41 21 56.5t61 15.5q48 0 64 -20.5t16 -51.5q0 -38 -18 -54.5t-62 -16.5q-45 0 -63.5 16.5t-18.5 54.5z" />
<glyph unicode="&#xc0;" horiz-adv-x="1239" d="M76 0l487 1384h107l493 -1384h-100l-150 440h-591l-150 -440h-96zM348 518h537l-271 787zM378 1905h119l194 -361h-67z" />
<glyph unicode="&#xc1;" horiz-adv-x="1239" d="M76 0l487 1384h107l493 -1384h-100l-150 440h-591l-150 -440h-96zM348 518h537l-271 787zM551 1544l195 361h118l-245 -361h-68z" />
<glyph unicode="&#xc2;" horiz-adv-x="1239" d="M76 0l487 1384h107l493 -1384h-100l-150 440h-591l-150 -440h-96zM319 1544l232 361h123l231 -361h-72l-221 291l-221 -291h-72zM348 518h537l-271 787z" />
<glyph unicode="&#xc3;" horiz-adv-x="1239" d="M76 0l487 1384h107l493 -1384h-100l-150 440h-591l-150 -440h-96zM266 1546q5 110 54 159.5t137 49.5q37 0 67.5 -10.5t56.5 -27t49 -35t45.5 -35t46.5 -27t52 -10.5q25 0 46 6t36.5 21t25 41t11.5 67h69q0 -51 -14.5 -89.5t-40 -64t-59.5 -38.5t-74 -13q-41 0 -71.5 11 t-56 27t-47.5 35t-44.5 35t-48 27t-58.5 11q-50 0 -79 -31.5t-33 -108.5h-70zM348 518h537l-271 787z" />
<glyph unicode="&#xc4;" horiz-adv-x="1239" d="M76 0l487 1384h107l493 -1384h-100l-150 440h-591l-150 -440h-96zM348 518h537l-271 787zM370 1624q0 34 14.5 52t57.5 18q45 0 58.5 -17.5t13.5 -52.5q0 -38 -14 -57t-58 -19t-58 22.5t-14 53.5zM717 1624q0 34 14 52t57 18q45 0 58.5 -17.5t13.5 -52.5q0 -38 -14 -57 t-58 -19t-57.5 22.5t-13.5 53.5z" />
<glyph unicode="&#xc5;" horiz-adv-x="1239" d="M76 0l487 1384h107l493 -1384h-100l-150 440h-591l-150 -440h-96zM348 518h537l-271 787zM450 1663q0 34 9.5 64t29.5 52.5t51 35t74 12.5q85 0 125.5 -45t40.5 -119q0 -35 -9.5 -64.5t-29.5 -52t-51.5 -35t-75.5 -12.5q-45 0 -76.5 13.5t-51 36t-28 52.5t-8.5 62z M512 1663q0 -46 22.5 -76t79.5 -30q56 0 80.5 27.5t24.5 78.5q0 56 -26 81.5t-79 25.5q-48 0 -75 -28t-27 -79z" />
<glyph unicode="&#xc6;" horiz-adv-x="1683" d="M70 0l510 1384h954v-77h-641v-527h584v-78h-584v-624h641v-78h-727v406h-502l-147 -406h-88zM332 483h475v824h-176z" />
<glyph unicode="&#xc7;" horiz-adv-x="1309" d="M162 692q0 174 31.5 308t99.5 226t175 139.5t257 47.5q87 0 158 -17t128 -51.5t101 -85.5t78 -118l-80 -45q-30 59 -66.5 103t-83 73.5t-105 44t-132.5 14.5q-127 0 -215.5 -41t-144.5 -121t-81.5 -200t-25.5 -277q0 -149 24.5 -267.5t80.5 -201t147 -126.5t225 -44 q91 0 156.5 22.5t112 57.5t77 78t51.5 84l76 -45q-32 -61 -73 -112t-96.5 -87.5t-129.5 -57.5t-172 -22v-2q94 -12 141.5 -51.5t47.5 -118.5q0 -48 -20 -83t-52.5 -58t-74 -34t-85.5 -11q-24 0 -54 4t-60 10.5t-56.5 15.5t-44.5 19l27 57q45 -18 91 -29.5t97 -11.5 q79 0 116.5 33t37.5 84q0 60 -45 92t-154 37l25 49q-265 19 -387.5 199.5t-122.5 519.5z" />
<glyph unicode="&#xc8;" horiz-adv-x="1157" d="M215 0v1384h793v-77h-707v-529h610v-78h-610v-622h707v-78h-793zM374 1905h119l194 -361h-67z" />
<glyph unicode="&#xc9;" horiz-adv-x="1157" d="M215 0v1384h793v-77h-707v-529h610v-78h-610v-622h707v-78h-793zM516 1544l195 361h118l-245 -361h-68z" />
<glyph unicode="&#xca;" horiz-adv-x="1157" d="M215 0v1384h793v-77h-707v-529h610v-78h-610v-622h707v-78h-793zM311 1544l232 361h123l231 -361h-72l-221 291l-221 -291h-72z" />
<glyph unicode="&#xcb;" horiz-adv-x="1157" d="M215 0v1384h793v-77h-707v-529h610v-78h-610v-622h707v-78h-793zM374 1624q0 34 14.5 52t57.5 18q45 0 58.5 -17.5t13.5 -52.5q0 -38 -14 -57t-58 -19t-58 22.5t-14 53.5zM721 1624q0 34 14 52t57 18q45 0 58.5 -17.5t13.5 -52.5q0 -38 -14 -57t-58 -19t-57.5 22.5 t-13.5 53.5z" />
<glyph unicode="&#xcc;" horiz-adv-x="668" d="M93 1905h119l194 -361h-67zM102 0v78h189v1229h-189v77h463v-77h-188v-1229h188v-78h-463z" />
<glyph unicode="&#xcd;" horiz-adv-x="668" d="M102 0v78h189v1229h-189v77h463v-77h-188v-1229h188v-78h-463zM267 1544l195 361h118l-245 -361h-68z" />
<glyph unicode="&#xce;" horiz-adv-x="668" d="M42 1544l232 361h123l231 -361h-72l-221 291l-221 -291h-72zM102 0v78h189v1229h-189v77h463v-77h-188v-1229h188v-78h-463z" />
<glyph unicode="&#xcf;" horiz-adv-x="668" d="M93 1624q0 34 14.5 52t57.5 18q45 0 58.5 -17.5t13.5 -52.5q0 -38 -14 -57t-58 -19t-58 22.5t-14 53.5zM102 0v78h189v1229h-189v77h463v-77h-188v-1229h188v-78h-463zM440 1624q0 34 14 52t57 18q45 0 58.5 -17.5t13.5 -52.5q0 -38 -14 -57t-58 -19t-57.5 22.5 t-13.5 53.5z" />
<glyph unicode="&#xd0;" horiz-adv-x="1272" d="M63 657v74h140v653h299q159 0 275.5 -35t192.5 -116t113 -213.5t37 -327.5q0 -202 -42 -335t-121.5 -212.5t-194.5 -112t-260 -32.5h-299v657h-140zM289 78h198q142 0 244 31t167.5 103t96.5 190t31 292q0 165 -28 281.5t-91.5 190t-166.5 107.5t-253 34h-198v-576h342 v-74h-342v-579z" />
<glyph unicode="&#xd1;" horiz-adv-x="1362" d="M215 0v1384h123l723 -1241v1241h86v-1384h-98l-748 1284v-1284h-86zM336 1587q5 110 54 159.5t137 49.5q37 0 67.5 -10.5t56.5 -27t49 -35t45.5 -35t46.5 -27t52 -10.5q25 0 46 6t36.5 21t25 41t11.5 67h69q0 -51 -14.5 -89.5t-40 -64t-59.5 -38.5t-74 -13 q-41 0 -71.5 11t-56 27t-47.5 35t-44.5 35t-48 27t-58.5 11q-50 0 -79 -31.5t-33 -108.5h-70z" />
<glyph unicode="&#xd2;" horiz-adv-x="1364" d="M152 692q0 164 28 297.5t91 227.5t164 145t247 51q147 0 248 -50.5t163.5 -144t90.5 -227t28 -299.5t-28 -299.5t-90.5 -227t-163.5 -144t-248 -50.5q-146 0 -247 51t-164 144.5t-91 227t-28 298.5zM246 692q0 -151 22.5 -270t73.5 -201t134.5 -125t205.5 -43 q121 0 204.5 42.5t135 124.5t74 200.5t22.5 271.5t-22.5 272t-74 200.5t-135 124t-204.5 42.5q-122 0 -205 -41.5t-134.5 -122.5t-74 -200.5t-22.5 -274.5zM477 1905h119l194 -361h-67z" />
<glyph unicode="&#xd3;" horiz-adv-x="1364" d="M152 692q0 164 28 297.5t91 227.5t164 145t247 51q147 0 248 -50.5t163.5 -144t90.5 -227t28 -299.5t-28 -299.5t-90.5 -227t-163.5 -144t-248 -50.5q-146 0 -247 51t-164 144.5t-91 227t-28 298.5zM246 692q0 -151 22.5 -270t73.5 -201t134.5 -125t205.5 -43 q121 0 204.5 42.5t135 124.5t74 200.5t22.5 271.5t-22.5 272t-74 200.5t-135 124t-204.5 42.5q-122 0 -205 -41.5t-134.5 -122.5t-74 -200.5t-22.5 -274.5zM590 1544l195 361h118l-245 -361h-68z" />
<glyph unicode="&#xd4;" horiz-adv-x="1364" d="M152 692q0 164 28 297.5t91 227.5t164 145t247 51q147 0 248 -50.5t163.5 -144t90.5 -227t28 -299.5t-28 -299.5t-90.5 -227t-163.5 -144t-248 -50.5q-146 0 -247 51t-164 144.5t-91 227t-28 298.5zM246 692q0 -151 22.5 -270t73.5 -201t134.5 -125t205.5 -43 q121 0 204.5 42.5t135 124.5t74 200.5t22.5 271.5t-22.5 272t-74 200.5t-135 124t-204.5 42.5q-122 0 -205 -41.5t-134.5 -122.5t-74 -200.5t-22.5 -274.5zM389 1544l232 361h123l231 -361h-72l-221 291l-221 -291h-72z" />
<glyph unicode="&#xd5;" horiz-adv-x="1364" d="M152 692q0 164 28 297.5t91 227.5t164 145t247 51q147 0 248 -50.5t163.5 -144t90.5 -227t28 -299.5t-28 -299.5t-90.5 -227t-163.5 -144t-248 -50.5q-146 0 -247 51t-164 144.5t-91 227t-28 298.5zM246 692q0 -151 22.5 -270t73.5 -201t134.5 -125t205.5 -43 q121 0 204.5 42.5t135 124.5t74 200.5t22.5 271.5t-22.5 272t-74 200.5t-135 124t-204.5 42.5q-122 0 -205 -41.5t-134.5 -122.5t-74 -200.5t-22.5 -274.5zM338 1546q5 110 54 159.5t137 49.5q37 0 67.5 -10.5t56.5 -27t49 -35t45.5 -35t46.5 -27t52 -10.5q25 0 46 6 t36.5 21t25 41t11.5 67h69q0 -51 -14.5 -89.5t-40 -64t-59.5 -38.5t-74 -13q-41 0 -71.5 11t-56 27t-47.5 35t-44.5 35t-48 27t-58.5 11q-50 0 -79 -31.5t-33 -108.5h-70z" />
<glyph unicode="&#xd6;" horiz-adv-x="1364" d="M152 692q0 164 28 297.5t91 227.5t164 145t247 51q147 0 248 -50.5t163.5 -144t90.5 -227t28 -299.5t-28 -299.5t-90.5 -227t-163.5 -144t-248 -50.5q-146 0 -247 51t-164 144.5t-91 227t-28 298.5zM246 692q0 -151 22.5 -270t73.5 -201t134.5 -125t205.5 -43 q121 0 204.5 42.5t135 124.5t74 200.5t22.5 271.5t-22.5 272t-74 200.5t-135 124t-204.5 42.5q-122 0 -205 -41.5t-134.5 -122.5t-74 -200.5t-22.5 -274.5zM442 1624q0 34 14.5 52t57.5 18q45 0 58.5 -17.5t13.5 -52.5q0 -38 -14 -57t-58 -19t-58 22.5t-14 53.5zM789 1624 q0 34 14 52t57 18q45 0 58.5 -17.5t13.5 -52.5q0 -38 -14 -57t-58 -19t-57.5 22.5t-13.5 53.5z" />
<glyph unicode="&#xd7;" horiz-adv-x="1427" d="M281 215l372 375l-372 379l55 55l373 -379l376 379l56 -55l-377 -379l377 -375l-56 -55l-376 375l-373 -375z" />
<glyph unicode="&#xd8;" horiz-adv-x="1364" d="M61 -115l203 291q-60 94 -86 224t-26 292q0 164 28 297.5t91 227.5t164 145t247 51q121 0 208.5 -34t149.5 -97l148 207h84l-185 -262q67 -94 96 -229t29 -306q0 -166 -28 -299.5t-90.5 -227t-163.5 -144t-248 -50.5q-127 0 -219.5 38t-155.5 110l-164 -234h-82zM246 692 q0 -137 17.5 -245.5t58.5 -190.5l667 952q-51 60 -126.5 91.5t-180.5 31.5q-122 0 -205 -41.5t-134.5 -122.5t-74 -200.5t-22.5 -274.5zM360 195q28 -36 61 -62.5t72 -44t86 -26.5t103 -9q121 0 204.5 42.5t135 124.5t74 200.5t22.5 271.5q0 146 -20.5 259.5t-67.5 195.5z " />
<glyph unicode="&#xd9;" horiz-adv-x="1352" d="M205 578v806h86v-786q0 -162 18 -268.5t62.5 -169t119 -88t187.5 -25.5q111 0 185 24.5t118 87t62 168t18 267.5v790h86v-806q0 -172 -25 -288.5t-80.5 -188t-144.5 -102t-217 -30.5q-139 0 -230.5 32.5t-146 105t-76.5 188.5t-22 283zM457 1905h119l194 -361h-67z" />
<glyph unicode="&#xda;" horiz-adv-x="1352" d="M205 578v806h86v-786q0 -162 18 -268.5t62.5 -169t119 -88t187.5 -25.5q111 0 185 24.5t118 87t62 168t18 267.5v790h86v-806q0 -172 -25 -288.5t-80.5 -188t-144.5 -102t-217 -30.5q-139 0 -230.5 32.5t-146 105t-76.5 188.5t-22 283zM610 1544l195 361h118l-245 -361 h-68z" />
<glyph unicode="&#xdb;" horiz-adv-x="1352" d="M205 578v806h86v-786q0 -162 18 -268.5t62.5 -169t119 -88t187.5 -25.5q111 0 185 24.5t118 87t62 168t18 267.5v790h86v-806q0 -172 -25 -288.5t-80.5 -188t-144.5 -102t-217 -30.5q-139 0 -230.5 32.5t-146 105t-76.5 188.5t-22 283zM391 1544l232 361h123l231 -361 h-72l-221 291l-221 -291h-72z" />
<glyph unicode="&#xdc;" horiz-adv-x="1352" d="M205 578v806h86v-786q0 -162 18 -268.5t62.5 -169t119 -88t187.5 -25.5q111 0 185 24.5t118 87t62 168t18 267.5v790h86v-806q0 -172 -25 -288.5t-80.5 -188t-144.5 -102t-217 -30.5q-139 0 -230.5 32.5t-146 105t-76.5 188.5t-22 283zM438 1624q0 34 14.5 52t57.5 18 q45 0 58.5 -17.5t13.5 -52.5q0 -38 -14 -57t-58 -19t-58 22.5t-14 53.5zM785 1624q0 34 14 52t57 18q45 0 58.5 -17.5t13.5 -52.5q0 -38 -14 -57t-58 -19t-57.5 22.5t-13.5 53.5z" />
<glyph unicode="&#xdd;" horiz-adv-x="1106" d="M61 1384h93l399 -768l399 768h92l-448 -843v-541h-86v537zM483 1544l195 361h118l-245 -361h-68z" />
<glyph unicode="&#xde;" horiz-adv-x="1124" d="M215 0v1384h86v-229h270q121 0 204 -31t134.5 -86.5t74 -133t22.5 -169.5q0 -128 -29.5 -214.5t-87.5 -140t-144 -76.5t-198 -23h-246v-281h-86zM301 358h242q97 0 166.5 18.5t113 62t64 114.5t20.5 176q0 97 -23 164t-66.5 107.5t-106.5 58.5t-142 18h-268v-719z" />
<glyph unicode="&#xdf;" horiz-adv-x="1126" d="M195 0v1049q0 100 11.5 186.5t48.5 149.5t105 99t181 36q78 0 139.5 -17.5t104.5 -56t66 -99.5t23 -147q0 -89 -21.5 -151.5t-59.5 -103t-90.5 -60t-114.5 -21.5q193 -9 295 -111.5t102 -308.5q0 -95 -20 -181.5t-65 -151.5t-118 -103.5t-180 -38.5q-57 0 -109.5 10 t-105.5 27v84q26 -12 55.5 -21t58.5 -15t55 -8.5t46 -2.5q82 0 138 30t90.5 84t49.5 129.5t15 166.5q0 92 -23.5 161t-79.5 115t-148 69t-228 23v78q104 0 175.5 16t115 52t62.5 93.5t19 139.5q0 123 -58 184.5t-193 61.5q-73 0 -122 -20.5t-79 -66.5t-42.5 -120.5 t-12.5 -181.5v-1057h-86z" />
<glyph unicode="&#xe0;" horiz-adv-x="1061" d="M133 295q0 68 16 126.5t63.5 103.5t134 76t226.5 44l215 21v55q0 72 -13 125.5t-45.5 89t-86.5 53t-135 17.5q-65 0 -111.5 -11t-79.5 -30t-55 -44.5t-39 -54.5l-63 41q24 40 54.5 72t71.5 54t95.5 34t126.5 12q102 0 172 -21.5t113 -66.5t62 -114t19 -164v-713h-86v174 q-49 -45 -94 -82.5t-90 -64.5t-93 -42.5t-103 -15.5q-74 0 -126 21.5t-85 63t-48.5 102.5t-15.5 139zM223 299q0 -134 44.5 -195t146.5 -61q35 0 68.5 7.5t75 31t96.5 66t134 112.5v332l-210 -21q-110 -11 -179 -32t-108 -54t-53.5 -79t-14.5 -107zM314 1569h119l194 -361 h-67z" />
<glyph unicode="&#xe1;" horiz-adv-x="1061" d="M133 295q0 68 16 126.5t63.5 103.5t134 76t226.5 44l215 21v55q0 72 -13 125.5t-45.5 89t-86.5 53t-135 17.5q-65 0 -111.5 -11t-79.5 -30t-55 -44.5t-39 -54.5l-63 41q24 40 54.5 72t71.5 54t95.5 34t126.5 12q102 0 172 -21.5t113 -66.5t62 -114t19 -164v-713h-86v174 q-49 -45 -94 -82.5t-90 -64.5t-93 -42.5t-103 -15.5q-74 0 -126 21.5t-85 63t-48.5 102.5t-15.5 139zM223 299q0 -134 44.5 -195t146.5 -61q35 0 68.5 7.5t75 31t96.5 66t134 112.5v332l-210 -21q-110 -11 -179 -32t-108 -54t-53.5 -79t-14.5 -107zM417 1208l195 361h118 l-245 -361h-68z" />
<glyph unicode="&#xe2;" horiz-adv-x="1061" d="M133 295q0 68 16 126.5t63.5 103.5t134 76t226.5 44l215 21v55q0 72 -13 125.5t-45.5 89t-86.5 53t-135 17.5q-65 0 -111.5 -11t-79.5 -30t-55 -44.5t-39 -54.5l-63 41q24 40 54.5 72t71.5 54t95.5 34t126.5 12q102 0 172 -21.5t113 -66.5t62 -114t19 -164v-713h-86v174 q-49 -45 -94 -82.5t-90 -64.5t-93 -42.5t-103 -15.5q-74 0 -126 21.5t-85 63t-48.5 102.5t-15.5 139zM222 1208l232 361h123l231 -361h-72l-221 291l-221 -291h-72zM223 299q0 -134 44.5 -195t146.5 -61q35 0 68.5 7.5t75 31t96.5 66t134 112.5v332l-210 -21 q-110 -11 -179 -32t-108 -54t-53.5 -79t-14.5 -107z" />
<glyph unicode="&#xe3;" horiz-adv-x="1061" d="M133 295q0 68 16 126.5t63.5 103.5t134 76t226.5 44l215 21v55q0 72 -13 125.5t-45.5 89t-86.5 53t-135 17.5q-65 0 -111.5 -11t-79.5 -30t-55 -44.5t-39 -54.5l-63 41q24 40 54.5 72t71.5 54t95.5 34t126.5 12q102 0 172 -21.5t113 -66.5t62 -114t19 -164v-713h-86v174 q-49 -45 -94 -82.5t-90 -64.5t-93 -42.5t-103 -15.5q-74 0 -126 21.5t-85 63t-48.5 102.5t-15.5 139zM171 1210q5 110 54 159.5t137 49.5q37 0 67.5 -10.5t56.5 -27t49 -35t45.5 -35t46.5 -27t52 -10.5q25 0 46 6t36.5 21t25 41t11.5 67h69q0 -51 -14.5 -89.5t-40 -64 t-59.5 -38.5t-74 -13q-41 0 -71.5 11t-56 27t-47.5 35t-44.5 35t-48 27t-58.5 11q-50 0 -79 -31.5t-33 -108.5h-70zM223 299q0 -134 44.5 -195t146.5 -61q35 0 68.5 7.5t75 31t96.5 66t134 112.5v332l-210 -21q-110 -11 -179 -32t-108 -54t-53.5 -79t-14.5 -107z" />
<glyph unicode="&#xe4;" horiz-adv-x="1061" d="M133 295q0 68 16 126.5t63.5 103.5t134 76t226.5 44l215 21v55q0 72 -13 125.5t-45.5 89t-86.5 53t-135 17.5q-65 0 -111.5 -11t-79.5 -30t-55 -44.5t-39 -54.5l-63 41q24 40 54.5 72t71.5 54t95.5 34t126.5 12q102 0 172 -21.5t113 -66.5t62 -114t19 -164v-713h-86v174 q-49 -45 -94 -82.5t-90 -64.5t-93 -42.5t-103 -15.5q-74 0 -126 21.5t-85 63t-48.5 102.5t-15.5 139zM223 299q0 -134 44.5 -195t146.5 -61q35 0 68.5 7.5t75 31t96.5 66t134 112.5v332l-210 -21q-110 -11 -179 -32t-108 -54t-53.5 -79t-14.5 -107zM265 1288q0 34 14.5 52 t57.5 18q45 0 58.5 -17.5t13.5 -52.5q0 -38 -14 -57t-58 -19t-58 22.5t-14 53.5zM612 1288q0 34 14 52t57 18q45 0 58.5 -17.5t13.5 -52.5q0 -38 -14 -57t-58 -19t-57.5 22.5t-13.5 53.5z" />
<glyph unicode="&#xe5;" horiz-adv-x="1061" d="M133 295q0 68 16 126.5t63.5 103.5t134 76t226.5 44l215 21v55q0 72 -13 125.5t-45.5 89t-86.5 53t-135 17.5q-65 0 -111.5 -11t-79.5 -30t-55 -44.5t-39 -54.5l-63 41q24 40 54.5 72t71.5 54t95.5 34t126.5 12q102 0 172 -21.5t113 -66.5t62 -114t19 -164v-713h-86v174 q-49 -45 -94 -82.5t-90 -64.5t-93 -42.5t-103 -15.5q-74 0 -126 21.5t-85 63t-48.5 102.5t-15.5 139zM223 299q0 -134 44.5 -195t146.5 -61q35 0 68.5 7.5t75 31t96.5 66t134 112.5v332l-210 -21q-110 -11 -179 -32t-108 -54t-53.5 -79t-14.5 -107zM335 1327q0 34 9.5 64 t29.5 52.5t51 35t74 12.5q85 0 125.5 -45t40.5 -119q0 -35 -9.5 -64.5t-29.5 -52t-51.5 -35t-75.5 -12.5q-45 0 -76.5 13.5t-51 36t-28 52.5t-8.5 62zM397 1327q0 -46 22.5 -76t79.5 -30q56 0 80.5 27.5t24.5 78.5q0 56 -26 81.5t-79 25.5q-48 0 -75 -28t-27 -79z" />
<glyph unicode="&#xe6;" horiz-adv-x="1663" d="M133 299q0 73 18.5 131t67 100.5t133 69t217.5 37.5l219 18v66q0 78 -19.5 132.5t-57 88.5t-92.5 49t-127 15q-193 0 -269 -144l-63 41q29 45 61 78.5t71.5 55t90 32t117.5 10.5q65 0 120 -10.5t99.5 -34.5t77 -62.5t53.5 -94.5q21 45 55.5 82t77.5 64t92.5 41.5 t102.5 14.5q103 0 172.5 -31t112 -90t61 -145t18.5 -197v-71h-668q0 -103 11.5 -194.5t45 -159.5t94.5 -108t161 -40q48 0 86 11t70 32t59 51.5t53 69.5l66 -45q-27 -45 -57.5 -80.5t-70.5 -60.5t-91.5 -38.5t-120.5 -13.5q-124 0 -208.5 53.5t-127.5 147.5 q-49 -39 -99 -75.5t-104 -64t-114.5 -44.5t-131.5 -17q-68 0 -117 25t-81.5 69t-48 104.5t-15.5 131.5zM223 295q0 -128 50 -190t143 -62q53 0 104 16t100.5 43t99 63t99.5 77q-8 25 -13.5 67t-9.5 89.5t-6 95.5t-2 84l-210 -17q-105 -8 -173.5 -24.5t-109 -47.5 t-56.5 -78.5t-16 -115.5zM874 618h582q-2 105 -19.5 179t-51.5 120.5t-85.5 67.5t-121.5 21q-64 0 -118 -23t-94.5 -71t-64.5 -121t-27 -173z" />
<glyph unicode="&#xe7;" horiz-adv-x="1001" d="M141 520q0 128 22.5 231.5t72 176t128.5 112t191 39.5q115 0 193 -50.5t135 -158.5l-72 -39q-22 42 -47 75t-56.5 55t-71.5 33.5t-91 11.5q-158 0 -236 -119.5t-78 -372.5q0 -110 18 -197.5t57 -148t100.5 -93t148.5 -32.5q57 0 99 13.5t73.5 37.5t54.5 56t43 69l70 -43 q-51 -103 -132 -154t-202 -53v-2q94 -12 141.5 -51.5t47.5 -118.5q0 -48 -20 -83t-52.5 -58t-74 -34t-85.5 -11q-24 0 -54 4t-60 10.5t-56.5 15.5t-44.5 19l27 57q45 -18 91 -29.5t97 -11.5q79 0 116.5 33t37.5 84q0 60 -45 92t-154 37l25 51q-102 10 -170.5 56t-110 118.5 t-59 168t-17.5 204.5z" />
<glyph unicode="&#xe8;" horiz-adv-x="1020" d="M141 516q0 141 22.5 247t70.5 176t123 105t180 35q186 0 274 -117t88 -346v-71h-668q0 -141 15.5 -237.5t50 -155t91 -84t138.5 -25.5q48 0 87.5 8t74 27t64.5 50.5t59 78.5l66 -45q-27 -45 -58.5 -80.5t-73 -60.5t-95 -38.5t-124.5 -13.5q-98 0 -170.5 29t-120 94 t-71 169.5t-23.5 254.5zM231 618h582q-2 108 -20 182t-52.5 119.5t-85.5 66t-118 20.5q-78 0 -134 -23t-92.5 -70.5t-56 -120.5t-23.5 -174zM304 1569h119l194 -361h-67z" />
<glyph unicode="&#xe9;" horiz-adv-x="1020" d="M141 516q0 141 22.5 247t70.5 176t123 105t180 35q186 0 274 -117t88 -346v-71h-668q0 -141 15.5 -237.5t50 -155t91 -84t138.5 -25.5q48 0 87.5 8t74 27t64.5 50.5t59 78.5l66 -45q-27 -45 -58.5 -80.5t-73 -60.5t-95 -38.5t-124.5 -13.5q-98 0 -170.5 29t-120 94 t-71 169.5t-23.5 254.5zM231 618h582q-2 108 -20 182t-52.5 119.5t-85.5 66t-118 20.5q-78 0 -134 -23t-92.5 -70.5t-56 -120.5t-23.5 -174zM467 1208l195 361h118l-245 -361h-68z" />
<glyph unicode="&#xea;" horiz-adv-x="1020" d="M141 516q0 141 22.5 247t70.5 176t123 105t180 35q186 0 274 -117t88 -346v-71h-668q0 -141 15.5 -237.5t50 -155t91 -84t138.5 -25.5q48 0 87.5 8t74 27t64.5 50.5t59 78.5l66 -45q-27 -45 -58.5 -80.5t-73 -60.5t-95 -38.5t-124.5 -13.5q-98 0 -170.5 29t-120 94 t-71 169.5t-23.5 254.5zM231 618h582q-2 108 -20 182t-52.5 119.5t-85.5 66t-118 20.5q-78 0 -134 -23t-92.5 -70.5t-56 -120.5t-23.5 -174zM236 1208l232 361h123l231 -361h-72l-221 291l-221 -291h-72z" />
<glyph unicode="&#xeb;" horiz-adv-x="1020" d="M141 516q0 141 22.5 247t70.5 176t123 105t180 35q186 0 274 -117t88 -346v-71h-668q0 -141 15.5 -237.5t50 -155t91 -84t138.5 -25.5q48 0 87.5 8t74 27t64.5 50.5t59 78.5l66 -45q-27 -45 -58.5 -80.5t-73 -60.5t-95 -38.5t-124.5 -13.5q-98 0 -170.5 29t-120 94 t-71 169.5t-23.5 254.5zM231 618h582q-2 108 -20 182t-52.5 119.5t-85.5 66t-118 20.5q-78 0 -134 -23t-92.5 -70.5t-56 -120.5t-23.5 -174zM285 1288q0 34 14.5 52t57.5 18q45 0 58.5 -17.5t13.5 -52.5q0 -38 -14 -57t-58 -19t-58 22.5t-14 53.5zM632 1288q0 34 14 52 t57 18q45 0 58.5 -17.5t13.5 -52.5q0 -38 -14 -57t-58 -19t-57.5 22.5t-13.5 53.5z" />
<glyph unicode="&#xec;" horiz-adv-x="475" d="M-15 1569h119l194 -361h-67zM195 0v1049h86v-1049h-86z" />
<glyph unicode="&#xed;" horiz-adv-x="475" d="M175 1208l195 361h118l-245 -361h-68zM195 0v1049h86v-1049h-86z" />
<glyph unicode="&#xee;" horiz-adv-x="475" d="M-57 1208l232 361h123l231 -361h-72l-221 291l-221 -291h-72zM195 0v1049h86v-1049h-86z" />
<glyph unicode="&#xef;" horiz-adv-x="475" d="M-8 1288q0 34 14.5 52t57.5 18q45 0 58.5 -17.5t13.5 -52.5q0 -38 -14 -57t-58 -19t-58 22.5t-14 53.5zM195 0v1049h86v-1049h-86zM339 1288q0 34 14 52t57 18q45 0 58.5 -17.5t13.5 -52.5q0 -38 -14 -57t-58 -19t-57.5 22.5t-13.5 53.5z" />
<glyph unicode="&#xf0;" horiz-adv-x="1124" d="M141 508q0 150 33.5 253.5t91 167.5t134 92t163.5 28q32 0 67 -4.5t69.5 -16.5t68 -32.5t63.5 -51.5q-17 53 -38 100t-49.5 92t-66 88.5t-87.5 88.5l-207 -148l-45 60l194 139q-24 21 -52.5 42.5t-58.5 42t-59.5 39t-54.5 32.5h119q16 -8 38.5 -21t46.5 -28t47 -31 t40 -29l143 102l45 -59l-131 -94q83 -73 145 -165.5t102.5 -201t60.5 -230.5t20 -255q0 -274 -105.5 -406.5t-314.5 -132.5q-217 0 -319.5 138t-102.5 401zM231 508q0 -94 14 -178.5t51 -148t101.5 -101t165.5 -37.5q99 0 163 37t101 100.5t51.5 148t14.5 179.5 q0 103 -15 188.5t-52.5 147t-102 95.5t-162.5 34q-91 0 -154 -31t-102 -90.5t-56.5 -146t-17.5 -197.5z" />
<glyph unicode="&#xf1;" horiz-adv-x="1110" d="M195 0v1049h86v-177q54 51 103 89.5t94.5 65t90 39.5t90.5 13q81 0 132.5 -25t81 -73.5t40.5 -119t11 -161.5v-700h-86v686q0 97 -11 158.5t-34 96.5t-58.5 47.5t-83.5 12.5q-75 0 -167 -53.5t-203 -165.5v-782h-86zM208 1210q5 110 54 159.5t137 49.5q37 0 67.5 -10.5 t56.5 -27t49 -35t45.5 -35t46.5 -27t52 -10.5q25 0 46 6t36.5 21t25 41t11.5 67h69q0 -51 -14.5 -89.5t-40 -64t-59.5 -38.5t-74 -13q-41 0 -71.5 11t-56 27t-47.5 35t-44.5 35t-48 27t-58.5 11q-50 0 -79 -31.5t-33 -108.5h-70z" />
<glyph unicode="&#xf2;" horiz-adv-x="1124" d="M141 522q0 119 22.5 221t72.5 176.5t130.5 117t196.5 42.5q111 0 190.5 -38.5t130.5 -111t75 -175.5t24 -232q0 -125 -22.5 -226.5t-72.5 -174.5t-130 -112.5t-195 -39.5q-114 0 -194.5 39.5t-131 112t-73.5 174.5t-23 227zM231 522q0 -242 80 -360.5t252 -118.5 q167 0 248.5 117t81.5 362q0 244 -78 364t-252 120q-89 0 -152 -31.5t-103 -93t-58.5 -151.5t-18.5 -208zM323 1569h119l194 -361h-67z" />
<glyph unicode="&#xf3;" horiz-adv-x="1124" d="M141 522q0 119 22.5 221t72.5 176.5t130.5 117t196.5 42.5q111 0 190.5 -38.5t130.5 -111t75 -175.5t24 -232q0 -125 -22.5 -226.5t-72.5 -174.5t-130 -112.5t-195 -39.5q-114 0 -194.5 39.5t-131 112t-73.5 174.5t-23 227zM231 522q0 -242 80 -360.5t252 -118.5 q167 0 248.5 117t81.5 362q0 244 -78 364t-252 120q-89 0 -152 -31.5t-103 -93t-58.5 -151.5t-18.5 -208zM471 1208l195 361h118l-245 -361h-68z" />
<glyph unicode="&#xf4;" horiz-adv-x="1124" d="M141 522q0 119 22.5 221t72.5 176.5t130.5 117t196.5 42.5q111 0 190.5 -38.5t130.5 -111t75 -175.5t24 -232q0 -125 -22.5 -226.5t-72.5 -174.5t-130 -112.5t-195 -39.5q-114 0 -194.5 39.5t-131 112t-73.5 174.5t-23 227zM231 522q0 -242 80 -360.5t252 -118.5 q167 0 248.5 117t81.5 362q0 244 -78 364t-252 120q-89 0 -152 -31.5t-103 -93t-58.5 -151.5t-18.5 -208zM270 1208l232 361h123l231 -361h-72l-221 291l-221 -291h-72z" />
<glyph unicode="&#xf5;" horiz-adv-x="1124" d="M141 522q0 119 22.5 221t72.5 176.5t130.5 117t196.5 42.5q111 0 190.5 -38.5t130.5 -111t75 -175.5t24 -232q0 -125 -22.5 -226.5t-72.5 -174.5t-130 -112.5t-195 -39.5q-114 0 -194.5 39.5t-131 112t-73.5 174.5t-23 227zM215 1210q5 110 54 159.5t137 49.5 q37 0 67.5 -10.5t56.5 -27t49 -35t45.5 -35t46.5 -27t52 -10.5q25 0 46 6t36.5 21t25 41t11.5 67h69q0 -51 -14.5 -89.5t-40 -64t-59.5 -38.5t-74 -13q-41 0 -71.5 11t-56 27t-47.5 35t-44.5 35t-48 27t-58.5 11q-50 0 -79 -31.5t-33 -108.5h-70zM231 522q0 -242 80 -360.5 t252 -118.5q167 0 248.5 117t81.5 362q0 244 -78 364t-252 120q-89 0 -152 -31.5t-103 -93t-58.5 -151.5t-18.5 -208z" />
<glyph unicode="&#xf6;" horiz-adv-x="1124" d="M141 522q0 119 22.5 221t72.5 176.5t130.5 117t196.5 42.5q111 0 190.5 -38.5t130.5 -111t75 -175.5t24 -232q0 -125 -22.5 -226.5t-72.5 -174.5t-130 -112.5t-195 -39.5q-114 0 -194.5 39.5t-131 112t-73.5 174.5t-23 227zM231 522q0 -242 80 -360.5t252 -118.5 q167 0 248.5 117t81.5 362q0 244 -78 364t-252 120q-89 0 -152 -31.5t-103 -93t-58.5 -151.5t-18.5 -208zM319 1288q0 34 14.5 52t57.5 18q45 0 58.5 -17.5t13.5 -52.5q0 -38 -14 -57t-58 -19t-58 22.5t-14 53.5zM666 1288q0 34 14 52t57 18q45 0 58.5 -17.5t13.5 -52.5 q0 -38 -14 -57t-58 -19t-57.5 22.5t-13.5 53.5z" />
<glyph unicode="&#xf7;" horiz-adv-x="1427" d="M195 551v78h1038v-78h-1038zM653 84v109h115v-109h-115zM653 985v109h115v-109h-115z" />
<glyph unicode="&#xf8;" horiz-adv-x="1124" d="M90 -76l146 201q-50 72 -72.5 172t-22.5 225q0 119 22.5 221t72.5 176.5t130.5 117t196.5 42.5q94 0 165 -28t122 -82l113 155h81l-151 -209q46 -71 68 -170t22 -223q0 -125 -22.5 -226.5t-72.5 -174.5t-130 -112.5t-195 -39.5q-94 0 -164.5 26.5t-119.5 76.5l-107 -148 h-82zM231 522q0 -210 58 -325l512 706q-44 54 -102 78.5t-136 24.5q-89 0 -152 -31.5t-103 -93t-58.5 -151.5t-18.5 -208zM328 137q45 -52 102.5 -73t132.5 -21q169 0 249.5 117.5t80.5 361.5q0 102 -12.5 181.5t-40.5 138.5z" />
<glyph unicode="&#xf9;" horiz-adv-x="1110" d="M186 348v701h86v-687q0 -98 11 -159t34 -96t58.5 -47.5t83.5 -12.5q151 0 370 219v783h86v-1049h-86v176q-103 -95 -194 -151t-178 -56q-83 0 -135.5 25t-82.5 73.5t-41.5 119t-11.5 161.5zM306 1569h119l194 -361h-67z" />
<glyph unicode="&#xfa;" horiz-adv-x="1110" d="M186 348v701h86v-687q0 -98 11 -159t34 -96t58.5 -47.5t83.5 -12.5q151 0 370 219v783h86v-1049h-86v176q-103 -95 -194 -151t-178 -56q-83 0 -135.5 25t-82.5 73.5t-41.5 119t-11.5 161.5zM500 1208l195 361h118l-245 -361h-68z" />
<glyph unicode="&#xfb;" horiz-adv-x="1110" d="M186 348v701h86v-687q0 -98 11 -159t34 -96t58.5 -47.5t83.5 -12.5q151 0 370 219v783h86v-1049h-86v176q-103 -95 -194 -151t-178 -56q-83 0 -135.5 25t-82.5 73.5t-41.5 119t-11.5 161.5zM265 1208l232 361h123l231 -361h-72l-221 291l-221 -291h-72z" />
<glyph unicode="&#xfc;" horiz-adv-x="1110" d="M186 348v701h86v-687q0 -98 11 -159t34 -96t58.5 -47.5t83.5 -12.5q151 0 370 219v783h86v-1049h-86v176q-103 -95 -194 -151t-178 -56q-83 0 -135.5 25t-82.5 73.5t-41.5 119t-11.5 161.5zM310 1288q0 34 14.5 52t57.5 18q45 0 58.5 -17.5t13.5 -52.5q0 -38 -14 -57 t-58 -19t-58 22.5t-14 53.5zM657 1288q0 34 14 52t57 18q45 0 58.5 -17.5t13.5 -52.5q0 -38 -14 -57t-58 -19t-57.5 22.5t-13.5 53.5z" />
<glyph unicode="&#xfd;" horiz-adv-x="995" d="M12 -362l31 73q22 -14 53.5 -21t59.5 -7q44 0 79.5 16t65.5 47.5t55.5 79t49.5 111.5l45 118l-383 994h92l336 -893l340 893h92l-457 -1164q-30 -77 -63.5 -130t-72 -86.5t-82 -48.5t-93.5 -15q-19 0 -40 2t-41.5 6.5t-37.5 10.5t-29 14zM427 1208l195 361h118l-245 -361 h-68z" />
<glyph unicode="&#xfe;" horiz-adv-x="1130" d="M195 -395v1884h86v-565q65 71 146 113t169 42q110 0 185 -44.5t121.5 -119.5t66.5 -174t20 -209q0 -138 -26.5 -243t-77.5 -176.5t-125.5 -107.5t-171.5 -36q-72 0 -152 39.5t-155 116.5v-520h-86zM281 217q83 -85 161 -129.5t146 -44.5q67 0 124 27.5t98.5 86t65 150.5 t23.5 221q0 122 -21.5 212t-61 149t-97 88t-129.5 29q-79 0 -154 -44t-155 -131v-614z" />
<glyph unicode="&#xff;" horiz-adv-x="995" d="M12 -362l31 73q22 -14 53.5 -21t59.5 -7q44 0 79.5 16t65.5 47.5t55.5 79t49.5 111.5l45 118l-383 994h92l336 -893l340 893h92l-457 -1164q-30 -77 -63.5 -130t-72 -86.5t-82 -48.5t-93.5 -15q-19 0 -40 2t-41.5 6.5t-37.5 10.5t-29 14zM252 1288q0 34 14.5 52t57.5 18 q45 0 58.5 -17.5t13.5 -52.5q0 -38 -14 -57t-58 -19t-58 22.5t-14 53.5zM599 1288q0 34 14 52t57 18q45 0 58.5 -17.5t13.5 -52.5q0 -38 -14 -57t-58 -19t-57.5 22.5t-13.5 53.5z" />
<glyph unicode="&#x152;" horiz-adv-x="1821" d="M152 692q0 166 27 299.5t93 227t177 144t278 50.5q57 0 114.5 -8t114.5 -21h715v-77h-661v-529h565v-78h-565v-622h661v-78h-715q-52 -12 -110.5 -20.5t-118.5 -8.5q-166 0 -276.5 51t-177 144.5t-94 227t-27.5 298.5zM246 692q0 -193 32 -317.5t93.5 -197t151.5 -100.5 t206 -28q20 0 46 2t53 5t52 7.5t44 10.5v1237q-41 11 -94.5 17.5t-100.5 6.5q-131 0 -223 -35.5t-150 -112.5t-84 -199t-26 -296z" />
<glyph unicode="&#x153;" horiz-adv-x="1765" d="M141 522q0 119 22.5 221t72.5 176.5t130.5 117t196.5 42.5q148 0 238 -68.5t131 -191.5q38 130 123 195t227 65q186 0 274.5 -117.5t88.5 -345.5v-71h-668q0 -141 15.5 -237.5t50 -155t91 -84t138.5 -25.5q48 0 87.5 8t74 27t64.5 50.5t58 78.5l66 -45 q-27 -45 -58.5 -80.5t-73 -60.5t-95 -38.5t-123.5 -13.5q-68 0 -123 13.5t-97.5 43.5t-73 77t-48.5 114q-42 -117 -130 -182.5t-237 -65.5q-114 0 -194.5 39.5t-131 112t-73.5 174.5t-23 227zM231 522q0 -242 80 -360.5t252 -118.5q167 0 248.5 117t81.5 362q0 244 -78 364 t-252 120q-89 0 -152 -31.5t-103 -93t-58.5 -151.5t-18.5 -208zM977 618h582q-2 108 -20 182t-52.5 119.5t-86 66t-118.5 20.5q-80 0 -136 -23t-92.5 -70.5t-54.5 -120.5t-22 -174z" />
<glyph unicode="&#x178;" horiz-adv-x="1106" d="M61 1384h93l399 -768l399 768h92l-448 -843v-541h-86v537zM310 1624q0 34 14.5 52t57.5 18q45 0 58.5 -17.5t13.5 -52.5q0 -38 -14 -57t-58 -19t-58 22.5t-14 53.5zM657 1624q0 34 14 52t57 18q45 0 58.5 -17.5t13.5 -52.5q0 -38 -14 -57t-58 -19t-57.5 22.5t-13.5 53.5z " />
<glyph unicode="&#x2c6;" horiz-adv-x="1126" d="M270 1208l232 361h123l231 -361h-72l-221 291l-221 -291h-72z" />
<glyph unicode="&#x2dc;" horiz-adv-x="1126" d="M215 1210q5 110 54 159.5t137 49.5q37 0 67.5 -10.5t56.5 -27t49 -35t45.5 -35t46.5 -27t52 -10.5q25 0 46 6t36.5 21t25 41t11.5 67h69q0 -51 -14.5 -89.5t-40 -64t-59.5 -38.5t-74 -13q-41 0 -71.5 11t-56 27t-47.5 35t-44.5 35t-48 27t-58.5 11q-50 0 -79 -31.5 t-33 -108.5h-70z" />
<glyph unicode="&#x2000;" horiz-adv-x="952" />
<glyph unicode="&#x2001;" horiz-adv-x="1905" />
<glyph unicode="&#x2002;" horiz-adv-x="952" />
<glyph unicode="&#x2003;" horiz-adv-x="1905" />
<glyph unicode="&#x2004;" horiz-adv-x="635" />
<glyph unicode="&#x2005;" horiz-adv-x="476" />
<glyph unicode="&#x2006;" horiz-adv-x="317" />
<glyph unicode="&#x2007;" horiz-adv-x="317" />
<glyph unicode="&#x2008;" horiz-adv-x="238" />
<glyph unicode="&#x2009;" horiz-adv-x="381" />
<glyph unicode="&#x200a;" horiz-adv-x="105" />
<glyph unicode="&#x2010;" horiz-adv-x="868" d="M123 485v82h622v-82h-622z" />
<glyph unicode="&#x2011;" horiz-adv-x="868" d="M123 485v82h622v-82h-622z" />
<glyph unicode="&#x2012;" horiz-adv-x="868" d="M123 485v82h622v-82h-622z" />
<glyph unicode="&#x2013;" horiz-adv-x="1126" d="M72 487v78h983v-78h-983z" />
<glyph unicode="&#x2014;" horiz-adv-x="2150" d="M72 487v78h2007v-78h-2007z" />
<glyph unicode="&#x2018;" d="M188 1061q0 45 8 91t21 88.5t30 79.5t36 64h47q-17 -24 -31 -57.5t-24 -70.5t-15.5 -75t-5.5 -71q51 0 67.5 -18t16.5 -56t-17 -55.5t-57 -17.5q-44 0 -60 26.5t-16 71.5z" />
<glyph unicode="&#x2019;" d="M188 1339q0 39 17 56.5t57 17.5q45 0 60.5 -26.5t15.5 -71.5t-8 -91t-21 -88.5t-30 -80t-35 -64.5h-47q17 25 31 58.5t23.5 70.5t15 75t5.5 71q-50 0 -67 17.5t-17 55.5z" />
<glyph unicode="&#x201a;" d="M188 55q0 38 17 56t57 18q45 0 60.5 -26.5t15.5 -71.5t-8 -91t-21 -88.5t-30 -80t-35 -64.5h-47q17 25 31 58.5t23.5 70.5t15 75t5.5 71q-50 0 -67 17.5t-17 55.5z" />
<glyph unicode="&#x201c;" horiz-adv-x="831" d="M188 1061q0 45 8 91t21 88.5t30 79.5t36 64h47q-17 -24 -31 -57.5t-24 -70.5t-15.5 -75t-5.5 -71q51 0 67.5 -18t16.5 -56t-17 -55.5t-57 -17.5q-44 0 -60 26.5t-16 71.5zM494 1061q0 45 8 91t21 88.5t30 79.5t35 64h47q-17 -24 -31 -57.5t-24 -70.5t-15.5 -75t-5.5 -71 q51 0 67.5 -18t16.5 -56t-16.5 -55.5t-57.5 -17.5q-44 0 -59.5 26.5t-15.5 71.5z" />
<glyph unicode="&#x201d;" horiz-adv-x="831" d="M188 1339q0 39 17 56.5t57 17.5q45 0 60.5 -26.5t15.5 -71.5t-8 -91t-21 -88.5t-30 -80t-35 -64.5h-47q17 25 31 58.5t23.5 70.5t15 75t5.5 71q-50 0 -67 17.5t-17 55.5zM494 1339q0 39 16.5 56.5t56.5 17.5q45 0 60.5 -26.5t15.5 -71.5t-8 -91t-21 -88.5t-30 -80 t-35 -64.5h-47q17 25 31 58.5t24 70.5t15.5 75t5.5 71q-51 0 -67.5 17.5t-16.5 55.5z" />
<glyph unicode="&#x201e;" horiz-adv-x="831" d="M188 55q0 38 17 56t57 18q45 0 60.5 -26.5t15.5 -71.5t-8 -91t-21 -88.5t-30 -80t-35 -64.5h-47q17 25 31 58.5t23.5 70.5t15 75t5.5 71q-50 0 -67 17.5t-17 55.5zM494 55q0 38 16.5 56t56.5 18q45 0 60.5 -26.5t15.5 -71.5t-8 -91t-21 -88.5t-30 -80t-35 -64.5h-47 q17 25 31 58.5t24 70.5t15.5 75t5.5 71q-51 0 -67.5 17.5t-16.5 55.5z" />
<glyph unicode="&#x2022;" horiz-adv-x="788" d="M168 745q0 48 18 89.5t49 72t72.5 48.5t87.5 18t87 -17.5t72 -48t49 -72.5t18 -90q0 -47 -17.5 -87.5t-48.5 -71.5t-72 -48.5t-88 -17.5q-48 0 -89 17.5t-72 48.5t-48.5 71.5t-17.5 87.5z" />
<glyph unicode="&#x2026;" horiz-adv-x="2048" d="M266 57q0 72 74 72q40 0 58 -16.5t18 -55.5q0 -42 -19 -56.5t-57 -14.5q-40 0 -57 18.5t-17 52.5zM948 57q0 72 74 72q40 0 58 -16.5t18 -55.5q0 -42 -19 -56.5t-57 -14.5q-40 0 -57 18.5t-17 52.5zM1630 57q0 72 74 72q40 0 58 -16.5t18 -55.5q0 -42 -19 -56.5 t-57 -14.5q-40 0 -57 18.5t-17 52.5z" />
<glyph unicode="&#x202f;" horiz-adv-x="381" />
<glyph unicode="&#x2039;" horiz-adv-x="608" d="M82 524l367 471h94l-367 -471l367 -471h-94z" />
<glyph unicode="&#x203a;" horiz-adv-x="608" d="M66 53l366 471l-366 471h94l366 -471l-366 -471h-94z" />
<glyph unicode="&#x205f;" horiz-adv-x="476" />
<glyph unicode="&#x20ac;" horiz-adv-x="1247" d="M41 532l31 74h71v178h-102l31 74h75q13 131 50 234t100.5 174.5t155 109t213.5 37.5q81 0 148 -18t121 -52.5t96.5 -86.5t76.5 -119l-84 -41q-28 59 -61.5 103.5t-76.5 74.5t-97 45.5t-121 15.5q-203 0 -305.5 -122t-124.5 -355h657l-31 -74h-631v-178h580l-31 -74h-544 q11 -114 41.5 -203.5t83.5 -151.5t131 -95t184 -33q84 0 144.5 23t103 59t70.5 79.5t48 84.5l80 -37q-32 -66 -71.5 -119t-93.5 -90.5t-124.5 -57.5t-162.5 -20q-243 0 -371 141t-154 420h-106z" />
<glyph unicode="&#x2122;" horiz-adv-x="1524" d="M109 1307v77h524v-77h-221v-637h-82v637h-221zM799 670v714h112l199 -405l209 405h104v-714h-82v596l-202 -392h-66l-192 386v-590h-82z" />
<glyph unicode="&#x25fc;" horiz-adv-x="1050" d="M0 0v1050h1050v-1050h-1050z" />
</font>
</defs>
</svg>
